<?xml version="1.0" standalone="no"?>
<!DOCTYPE svg PUBLIC "-//W3C//DTD SVG 1.1//EN" "http://www.w3.org/Graphics/SVG/1.1/DTD/svg11.dtd">
<svg xmlns="http://www.w3.org/2000/svg">
<metadata>BuddyBoss</metadata>
<defs>
<font id="filled" horiz-adv-x="1000" >
<font-face font-family="filled" font-weight="400" font-stretch="normal" units-per-em="1000" ascent="850" descent="-150" />
<missing-glyph horiz-adv-x="1000" />
<glyph glyph-name="brand-meetup" unicode="&#xe800;" d="M515 684c0-23 19-41 42-41 23 0 42 18 42 41 0 23-19 41-42 41-23 0-42-18-42-41z m-83-41c-73 0-135-46-158-109-67-3-121-56-121-123 0-19 5-37 13-53-25-25-41-59-41-97 0-66 48-121 112-134l-1-2c0-76 63-137 140-137 34 0 64 12 89 32 20-20 48-32 78-32 52 0 96 35 108 82 80 6 143 71 143 150 0 31-10 61-27 85 17 17 27 40 27 65 0 38-23 71-56 87 0 1 0 2 0 3 0 2 0 4 0 6 0 83-68 150-153 150-17 0-34-3-50-8-28 22-64 35-103 35z m-223-54c0-15 12-28 28-28 15 0 28 13 28 28 0 15-13 27-28 27-16 0-28-12-28-27z m641-246c-15 0-28-12-28-27 0-15 13-28 28-28 16 0 28 13 28 28 0 15-12 27-28 27z m-669-260c0-7 6-13 14-13 8 0 14 6 14 13 0 8-6 14-14 14-8 0-14-6-14-14z m516-41c-23 0-42-18-42-41 0-22 19-41 42-41 23 0 42 19 42 41 0 23-19 41-42 41z m-237-54c-16 0-28-12-28-27 0-15 12-28 28-28 15 0 28 13 28 28 0 15-13 27-28 27z m41 431c8-1 14-6 20-12 1-1 2-2 2-3 6-5 10-3 13-1 0 1 1 1 1 1 0 0 0 0 1 0 5 3 9 6 24 5 16 0 34-6 38-33 3-15-9-41-22-68-12-29-26-59-24-77 1-13 14-15 26-16 11-2 22-3 24-15 5-30-55-19-68-12-21 10-34 34-28 57 2 9 13 32 24 54 10 21 20 40 20 45 2 12-4 13-8 13-5 0-8-2-13-9-3-5-28-53-44-85-7-14-12-24-13-27-14-25-49-21-45 5 0 3 7 19 14 36 9 22 19 46 19 52 1 6 0 13-7 17-6 3-14-2-16-6-2-3-13-31-25-60-12-31-25-63-27-67-8-15-17-19-29-20-30-2-53 23-43 53 1 3 2 7 4 13 9 32 32 107 44 129 10 17 38 31 56 23 10-5 24-11 28-13 8-4 17 4 21 8 1 1 2 2 2 2 8 6 13 11 22 11 2 1 6 0 9 0z" horiz-adv-x="1000" />

<glyph glyph-name="ball-soccer" unicode="&#xe801;" d="M258 548c35 42 80 75 132 94l81-50 5-117-80-56-116 34-22 95z m3-154l115-34 29-95-66-98-98 9c-30 44-49 98-53 155l73 63z m126-268l68 102h99l72-96-34-81c-29-9-60-13-92-13-28 0-55 3-80 10l-33 78z m290 41l-72 98 30 96 116 34 61-53c-1-62-21-119-53-167l-82-8z m-139 306l-5 117 86 49c53-22 98-57 132-102l-19-82-117-35-77 53z m-413-123c0-207 168-375 375-375 207 0 375 168 375 375 0 207-168 375-375 375-207 0-375-168-375-375z" horiz-adv-x="1000" />

<glyph glyph-name="brand-onesignal" unicode="&#xe802;" d="M500 725c-230 0-417-186-417-417 0-159 90-297 221-367 42 38 95 64 154 73l0 6 0 0 0 55 0 0v99l0 30 0 0 0 105h-30v41h114l0-146 0 0 0-30v-99l0 0 0-55 0 0 0-6c59-9 112-35 154-73 131 70 221 208 221 367 0 231-187 417-417 417z m0-125c161 0 292-131 292-292 0-132-88-243-209-279l0 57 9 3c86 36 146 121 146 219 0 132-107 238-238 238-131 0-237-106-237-238 0-101 64-188 154-222l0-57-11 3c-115 39-198 148-198 276 0 161 131 292 292 292z m0-125c92 0 167-75 167-167 0-61-34-115-84-144l0 69 6 6c15 19 24 43 24 69 0 63-51 113-113 113-62 0-112-50-112-113 0-29 11-55 29-75l0-69-8 5c-46 30-76 81-76 139 0 92 75 167 167 167z" horiz-adv-x="1000" />

<glyph glyph-name="calendar" unicode="&#xe803;" d="M365 735c0 18-14 32-32 32-17 0-31-14-31-32v-41h-51c-69 0-126-59-126-133v-71h750v71c0 74-56 133-126 133h-51v41c0 18-14 32-31 32-18 0-32-14-32-32v-41h-270v41z m510-307h-750v-352c0-73 57-132 126-132h498c70 0 126 59 126 132v352z" horiz-adv-x="1000" />

<glyph glyph-name="thumbtack" unicode="&#xe804;" d="M671 683l-374 0-4 0c-14-2-25-14-25-28 0-16 13-29 29-29l50 0-13-255-2-2c-69-34-110-94-122-176l-1-11c-2-17 11-32 28-32l215 0 0-146 0-4c2-14 14-25 29-25 16 0 29 13 29 29l0 146 224 0c17 0 30 15 28 32l-1 11c-12 82-53 142-122 176l-2 2-13 255h47l4 0c14 2 25 14 25 28 0 16-13 29-29 29z" horiz-adv-x="1000" />

<glyph glyph-name="award-slash" unicode="&#xe805;" d="M521 598c83 0 151-69 151-154 0-23-6-45-15-65l124-113c17 17 27 42 22 67l-1 5v1c-7 37 0 74 18 107l3 4 0 0c19 31 12 71-16 94l-3 3-7 6c-25 24-42 55-47 89l-1 5c-5 36-36 62-72 62h-4c-38-1-74 12-102 37l-3 3c-2 2-3 3-5 4l-5 3c-23 14-51 14-74 0-4-2-7-4-10-7l-4-3c-27-25-64-38-101-38h-11c-15-1-30-7-41-18l126-115c22 14 49 23 78 23z m-38-510c-60-24-127 1-158 58l-2 4c-2 3-4 6-6 9l-52-147c-1-2-2-5-2-7 1-11 10-19 20-19l74 2 54-49c2-2 4-3 7-4 10-4 20 2 24 12l52 145-7-2-4-2z m237 65c0-1-1-2-2-3l-2-4c-31-57-98-81-158-58l-4 1c-2 1-4 2-6 2l51-145 1-3c5-8 15-12 23-8 3 0 5 2 7 3l54 50 74-3h3c9 2 16 10 16 19 0 2 0 5-1 7l-48 138 81-74c12-11 32-10 44 2 11 13 10 33-2 45l-622 566c-12 12-32 11-44-2-11-13-10-32 2-44l76-69c-7-9-15-18-25-26l-3-3c-27-23-35-63-16-94v-1l2-4c19-32 26-70 19-107v0l-1-5c-6-30 7-59 30-75l5-3c4-2 8-4 11-5l3-1h1l0-1c35-12 65-37 83-70l2-4c17-32 55-46 88-33l4 2c35 13 73 13 108 0l4-2c34-13 71 1 89 33l2 4c3 5 6 11 10 16l42-39c0-1-1-1-1-2z m-155 144c-14-4-29-6-44-6-83 0-151 68-151 153 0 10 1 20 3 29l192-176z" horiz-adv-x="1000" />

<glyph glyph-name="car-small" unicode="&#xe806;" d="M917 369c0 23-19 42-42 42h-148l-65 163c-6 16-22 26-39 26h-284c-17 0-32-10-39-26l-65-163h-110c-23 0-42-19-42-42v-165c0-11 10-21 21-21h6c18 61 74 105 140 105 66 0 122-44 140-105h220c18 61 74 105 140 105 66 0 122-44 140-105h6c11 0 21 10 21 21v165z m-167-144c-31 0-58-17-72-42-7-12-11-26-11-41 0-46 37-84 83-84 46 0 83 38 83 84 0 15-4 29-11 41-14 25-41 42-72 42z m-572-42c-7-12-11-26-11-41 0-46 37-84 83-84 46 0 83 38 83 84 0 15-4 29-11 41-14 25-41 42-72 42-31 0-58-17-72-42z m284 335c17 0 31-14 31-32v-44h83c17 0 31-14 31-31 0-18-14-32-31-32h-114c-17 0-31 14-31 32v75c0 18 14 32 31 32z" horiz-adv-x="1000" />

<glyph glyph-name="brand-facebook-f" unicode="&#xe807;" d="M709 298l23 151h-145v98c0 41 21 81 85 81h66v129c0 0-60 10-117 10-119 0-197-73-197-203v-115h-132v-151h132v-365h163v365h122z" horiz-adv-x="1000" />

<glyph glyph-name="angle-down" unicode="&#xe826;" d="M262 463c-16-16-16-43 0-59l209-208c16-17 42-17 59 0l208 208c16 16 16 43 0 59-16 16-43 16-59 0l-179-179-179 179c-16 16-42 16-59 0z" horiz-adv-x="1000" />

<glyph glyph-name="angle-right" unicode="&#xe827;" d="M346 112c16-16 42-16 59 0l208 209c16 16 16 42 0 59l-208 208c-17 16-43 16-59 0-17-16-17-43 0-59l178-179-178-179c-17-16-17-42 0-59z" horiz-adv-x="1000" />

<glyph glyph-name="times" unicode="&#xe828;" d="M286 508l149-149-149-150c-16-15-16-40 0-56 15-15 40-15 56 0l149 150 150-150c15-15 40-15 56 0 15 16 15 41 0 56l-150 150 150 149c15 16 15 41 0 56-16 16-41 16-56 0l-150-149-149 149c-16 16-41 16-56 0-16-15-16-40 0-56z" horiz-adv-x="1000" />

<glyph glyph-name="activity" unicode="&#xe854;" d="M313 725c-104 0-188-84-188-187v-375c0-104 84-188 188-188h375c103 0 187 84 187 188v375c0 103-84 187-187 187h-375z m281-200l66-191h59c15 0 28-12 28-28 0-15-13-28-28-28h-66c-20 0-38 13-44 31l-36 104-56-247c-3-13-14-22-27-22-12-1-24 7-28 19l-52 166-14-26c-9-15-24-25-41-25h-74c-15 0-28 13-28 28 0 16 13 28 28 28h68l42 80c6 10 17 16 28 15 11-1 21-9 24-19l42-131 55 243c3 12 14 21 26 22 13 0 24-7 28-19z" horiz-adv-x="1000" />

<glyph glyph-name="question-triangle" unicode="&#xe855;" d="M563 793c22-12 40-30 52-51l369-658c35-63 11-142-53-176-19-10-41-15-62-15h-737c-73 0-132 57-132 129 0 22 6 43 16 62l369 658c35 62 114 85 178 51z m-69-745c21 0 39 17 39 39 0 22-18 39-39 39-22 0-39-17-39-39 0-22 17-39 39-39z m-20 335c5 5 13 9 26 9 6 0 11-1 16-3 4-1 8-4 11-6 3-3 5-6 7-10 1-3 2-7 3-16 0-10-4-24-19-42-4-3-9-8-13-12l-3-4c-4-3-7-6-8-8-7-7-13-15-19-23-6-10-10-20-13-31-4-11-5-23-5-36v-8c0-17 14-31 31-31 17 0 31 14 31 31v8c0 8 1 14 3 19 1 6 3 10 6 14 3 5 6 9 10 13 2 2 6 6 10 10l3 3c4 5 9 9 10 11l2 1 1 1c22 26 36 55 35 87 0 12-2 26-8 39-5 12-13 22-23 30-9 9-20 15-31 19-12 4-25 6-37 6-27 0-51-8-70-27-18-17-28-39-32-63-2-17 9-33 26-36 17-2 33 9 36 26 2 13 7 22 14 29z" horiz-adv-x="1000" />

<glyph glyph-name="align-center" unicode="&#xe856;" d="M292 517c0-23 18-42 41-42h334c23 0 41 19 41 42 0 23-18 41-41 41h-334c-23 0-41-18-41-41z m-125-167c0-23 18-42 41-42h584c23 0 41 19 41 42 0 23-18 42-41 42h-584c-23 0-41-19-41-42z m166-125c-23 0-41-19-41-42 0-23 18-41 41-41h334c23 0 41 18 41 41 0 23-18 42-41 42h-334z" horiz-adv-x="1000" />

<glyph glyph-name="airplay" unicode="&#xe857;" d="M285 683c-88 0-160-71-160-160v-269c0-63 51-114 114-114 20 0 36 16 36 36 0 19-16 35-36 35-24 0-43 20-43 43v269c0 49 40 90 89 90h459c49 0 89-41 89-90v-269c0-23-19-43-43-43-19 0-35-16-35-35 0-20 16-36 35-36 63 0 114 51 114 114v269c0 89-72 160-160 160h-459z m198-406l-146-170c-23-27-3-69 32-69h291c36 0 55 42 32 69l-146 170c-16 19-46 19-63 0z" horiz-adv-x="1000" />

<glyph glyph-name="align-justify" unicode="&#xe858;" d="M167 517c0-23 18-42 41-42h584c23 0 41 19 41 42 0 23-18 41-41 41h-584c-23 0-41-18-41-41z m0-167c0-23 18-42 41-42h584c23 0 41 19 41 42 0 23-18 42-41 42h-584c-23 0-41-19-41-42z m41-125c-23 0-41-19-41-42 0-23 18-41 41-41h584c23 0 41 18 41 41 0 23-18 42-41 42h-584z" horiz-adv-x="1000" />

<glyph glyph-name="align-left" unicode="&#xe859;" d="M167 517c0-23 18-42 41-42h584c23 0 41 19 41 42 0 23-18 41-41 41h-584c-23 0-41-18-41-41z m0-167c0-23 18-42 41-42h334c23 0 41 19 41 42 0 23-18 42-41 42h-334c-23 0-41-19-41-42z m41-125c-23 0-41-19-41-42 0-23 18-41 41-41h584c23 0 41 18 41 41 0 23-18 42-41 42h-584z" horiz-adv-x="1000" />

<glyph glyph-name="align-right" unicode="&#xe85a;" d="M833 183c0 23-18 42-41 42l-584 0c-23 0-41-19-41-42 0-23 18-41 41-41l584 0c23 0 41 18 41 41z m0 167c0 23-18 42-41 42h-334c-23 0-41-19-41-42 0-23 18-42 41-42h334c23 0 41 19 41 42z m-41 125c23 0 41 19 41 42 0 23-18 41-41 41l-584 0c-23 0-41-18-41-41 0-23 18-42 41-42l584 0z" horiz-adv-x="1000" />

<glyph glyph-name="anchor" unicode="&#xe85d;" d="M646 621c0 80-65 146-146 146-80 0-146-66-146-146 0-66 44-122 104-140v-462c-150 19-270 139-289 289h69c23 0 41 19 41 42 0 23-18 42-41 42h-113c-23 0-42-19-42-42 0-230 187-417 417-417 0 0 0 0 0 0 230 0 417 187 417 417 0 23-19 42-42 42h-112c-23 0-42-19-42-42 0-23 19-42 42-42h68c-19-150-139-270-289-289v462c60 18 104 74 104 140z" horiz-adv-x="1000" />

<glyph glyph-name="brand-aperture" unicode="&#xe85e;" d="M472 725c-86-6-171-43-237-109-12-11-23-24-32-36l90-165 179 310z m-307-206c-51-101-53-219-7-321h182l-73 134c-2 3-4 5-5 9l-97 178z m28-384c13-17 26-34 42-49 62-62 141-98 222-108l90 157h-354z m335-158c86 6 171 43 237 109 15 14 27 29 39 45l-93 162-183-316z m312 216c47 100 47 217 0 317h-183l183-317z m-37 380c-12 15-24 30-38 43-62 62-140 98-222 108l-87-151h347z" horiz-adv-x="1000" />

<glyph glyph-name="arrow-left" unicode="&#xe85f;" d="M167 350c0-23 18-42 41-42h584c23 0 41 19 41 42 0 23-18 42-41 42h-584c-23 0-41-19-41-42z m279 238c-16 16-42 16-59 0l-208-208c-16-17-16-43 0-59 16-17 43-17 59 0l208 208c16 16 16 43 0 59z m-267-208c-16-17-16-43 0-59l208-209c17-16 43-16 59 0 16 17 16 43 0 59l-208 209c-16 16-43 16-59 0z" horiz-adv-x="1000" />

<glyph glyph-name="arrow-right" unicode="&#xe860;" d="M842 346c0 25-21 46-46 46h-583c-26 0-46-21-46-46 0-25 20-46 46-46h583c25 0 46 21 46 46z m-287-241c18-18 47-18 65 0l208 208c18 18 18 47 0 65-18 18-47 18-65 0l-208-208c-18-18-18-47 0-65z m273 208c18 18 18 47 0 65l-208 209c-18 18-47 18-65 0-18-18-18-47 0-65l208-209c18-17 47-17 65 0z" horiz-adv-x="1000" />

<glyph glyph-name="arrow-down" unicode="&#xe861;" d="M500 17c23 0 42 18 42 41v584c0 23-19 41-42 41-23 0-42-18-42-41v-584c0-23 19-41 42-41z m-238 279c-16-16-16-42 0-59l209-208c16-16 42-16 59 0 16 16 16 43 0 59l-209 208c-16 16-42 16-59 0z m209-267c16-16 42-16 59 0l208 208c16 17 16 43 0 59-16 16-43 16-59 0l-208-208c-17-16-17-43 0-59z" horiz-adv-x="1000" />

<glyph glyph-name="arrow-up" unicode="&#xe864;" d="M500 683c-23 0-42-18-42-41v-584c0-23 19-41 42-41 23 0 42 18 42 41v584c0 23-19 41-42 41z m238-279c16 16 16 43 0 59l-208 208c-17 16-43 16-59 0-17-16-17-42 0-59l208-208c16-16 43-16 59 0z m-208 267c-17 16-43 16-59 0l-209-208c-16-16-16-43 0-59 17-16 43-16 59 0l209 208c16 17 16 43 0 59z" horiz-adv-x="1000" />

<glyph glyph-name="award" unicode="&#xe865;" d="M724 159c-2-3-4-6-5-9l-2-4c-31-57-99-82-158-58l-4 1c-3 1-5 2-7 3l52-145 1-4c5-7 14-11 23-8 3 1 5 2 7 4l54 49 73-2 4 0c9 2 16 9 16 19 0 2 0 5-1 7l-53 147z m-407 0l-52-147c-1-2-2-5-1-7 0-11 9-19 19-19l74 2 54-49c2-2 4-3 6-4 10-4 21 2 25 12l52 145-7-3-4-1c-60-24-127 1-158 58l-2 4c-2 3-4 6-6 9z m241 597c-23 14-51 14-74 0-3-2-7-4-10-7l-3-3c-28-25-65-38-102-38l-4 0-6 0c-33-2-61-27-66-61l-1-5c-6-37-25-71-54-95l-3-3c-28-23-35-63-16-94l0-1 2-4c19-32 26-70 19-106l0-1-1-5c-6-29 7-58 30-74l5-3c4-2 8-4 12-6l3-1c0 0 0 0 0 0l1 0c35-12 64-38 82-71l3-4c17-31 55-45 88-32l4 1c35 14 73 14 108 0l4-1c33-13 71 1 88 32l2 4c18 33 48 59 83 71l0 0 1 0 3 1c4 2 8 4 11 6l6 3c23 16 36 45 30 74l-1 5 0 1c-7 36 0 74 19 106l2 4 0 1c19 31 12 71-16 94l-4 3-7 6c-25 24-41 55-46 89l-1 5c-6 36-36 62-72 61l-5 0c-37 0-73 13-101 38l-3 3c-2 1-4 3-5 4l-5 3z m-37-158c83 0 151-69 151-154 0-85-68-154-151-154-83 0-151 69-151 154 0 85 68 154 151 154z" horiz-adv-x="1000" />

<glyph glyph-name="at" unicode="&#xe867;" d="M500 683c184 0 333-149 333-333v-62c0-42-33-76-75-76-42 0-76 34-76 76v62c0 101-81 182-182 182-101 0-182-81-182-182 0-101 81-182 182-182 45 0 87 16 119 43 27-49 79-82 139-82 88 0 159 71 159 159v62c0 230-187 417-417 417-230 0-417-187-417-417 0-230 187-417 417-417 53 0 107 10 160 32 21 9 31 33 22 54-9 22-33 32-54 23-42-17-85-25-128-25-184 0-333 149-333 333 0 184 149 333 333 333z m99-333c0-55-44-99-99-99-55 0-99 44-99 99 0 55 44 99 99 99 55 0 99-44 99-99z" horiz-adv-x="1000" />

<glyph glyph-name="chart-bar-v" unicode="&#xe868;" d="M514 767c28 0 51-23 51-52v-699h52v439c0 28 23 51 51 51h100c28 0 51-23 51-51v-439h87c18 0 32-14 32-31 0-17-14-31-32-31h-833c-17 0-31 14-31 31 0 17 14 31 31 31h35v569c0 28 23 51 52 51h99c29 0 52-23 52-51v-569h52v699c0 29 23 52 51 52h100z" horiz-adv-x="1000" />

<glyph glyph-name="battery" unicode="&#xe869;" d="M580 384c6-11 4-24-3-33l-176-220h328c46 0 84 37 84 83v47h83c29 0 52 23 52 52v115c0 28-23 52-52 52l-83 0v37c0 46-38 83-84 83h-167l-154-198h144c12 0 23-7 28-18z m233 33c0 0 0 0 0 0l72 0v-94h-72v94z m-646-286h154l166 208-143 0c-12 0-23 7-28 18-6 10-4 23 3 32l164 211h-316c-46 0-84-37-84-83v-303c0-46 38-83 84-83z" horiz-adv-x="1000" />

<glyph glyph-name="bell-slash" unicode="&#xe86a;" d="M283 679c-11 6-26 5-36-5-12-12-13-31-1-44l33-35c-21-38-34-82-34-129l0-136c-45-12-78-53-78-101 0-58 46-105 104-105h463l1 0 1 0 44-45c12-12 32-12 44 0 10 10 12 25 6 37-3 2-6 4-8 6l-456 468-78 83c-2 2-4 4-5 6z m551-480c3 9 4 19 4 30 0 47-32 88-75 100l0 137c0 143-116 259-259 259-52 0-100-15-140-41l47-51 423-434z m-447-125c-16-7-22-26-15-42l1-2c3-6 9-17 14-25 26-37 68-61 117-61 60 0 111 37 132 89 7 16-1 35-17 41-16 6-34-1-41-17-11-30-40-51-74-51-27 0-51 14-66 35-2 3-5 8-8 16l-1 3c-8 15-27 22-42 14z" horiz-adv-x="1000" />

<glyph glyph-name="battery-empty" unicode="&#xe86b;" d="M167 525h500c27 0 50-22 50-50v-250c0-28-23-50-50-50h-500c-28 0-50 22-50 50v250c0 28 22 50 50 50z m-125-50v-250c0-69 56-125 125-125h500c69 0 125 56 125 125v250c0 69-56 125-125 125h-500c-69 0-125-56-125-125z m875-42c0 23-19 42-42 42-23 0-42-19-42-42v-166c0-23 19-42 42-42 23 0 42 19 42 42v166z" horiz-adv-x="1000" />

<glyph glyph-name="bluetooth" unicode="&#xe86c;" d="M466 680c-16-6-26-22-26-38v-193l-77 77c-17 16-43 15-59-1-16-16-16-43 0-59l118-116-118-116c-16-16-16-43 0-59 16-16 42-17 59-1l77 77v-193c0-16 10-32 26-38 15-7 33-3 45 9l149 145c8 8 12 19 12 30 0 11-4 22-12 30l-119 116 119 116c8 8 12 19 12 30 0 11-4 22-12 30l-149 145c-12 12-30 16-45 9z m58-429l47-47-47-46v93z m0 198v93l47-46-47-47z" horiz-adv-x="1000" />

<glyph glyph-name="bell" unicode="&#xe86d;" d="M504 725c-143 0-259-116-259-259l0-136c-45-12-78-53-78-101 0-58 46-105 104-105h463c58 0 104 47 104 105 0 47-32 88-75 100l0 137c0 143-116 259-259 259z m-117-651c-16-7-22-26-15-42 1 0 1-1 1-2 3-6 9-17 14-25 25-37 68-61 117-61 60 0 111 37 132 89 7 16-1 35-17 41-16 6-34-1-41-17-11-30-40-51-74-51-27 0-51 14-66 35-2 3-5 9-8 16 0 1-1 2-1 3-8 15-27 22-42 14z" horiz-adv-x="1000" />

<glyph glyph-name="book" unicode="&#xe86e;" d="M167 600v-397c32 26 74 41 118 41h541c5 0 9 0 14-1v440c0 23-19 42-42 42h-506c-69 0-125-56-125-125z m164-104c0 17 14 31 32 31h270c18 0 32-14 32-31 0-17-14-31-32-31h-270c-18 0-32 14-32 31z m32-94h270c18 0 32-14 32-31 0-17-14-31-32-31h-270c-18 0-32 14-32 31 0 17 14 31 32 31z m460-350c-1-32 4-60 14-106 1-6-5-13-12-13h-540c-65 0-118 53-118 119 0 66 53 119 118 119h541c7 0 12-7 11-14-9-47-13-77-14-105z" horiz-adv-x="1000" />

<glyph glyph-name="briefcase" unicode="&#xe86f;" d="M438 725c-75 0-136-61-136-135v-21h-73c-57 0-104-47-104-104v-375c0-58 47-105 104-105h542c57 0 104 47 104 105v375c0 57-47 104-104 104h-73v21c0 74-61 135-135 135h-125z m197-156h-270v21c0 40 32 73 73 73h125c40 0 72-33 72-73v-21z m-302-136c18 0 32-14 32-31v-259c0-17-14-31-32-31-17 0-31 14-31 31v259c0 17 14 31 31 31z m334 0c17 0 31-14 31-31v-259c0-17-14-31-31-31-18 0-32 14-32 31v259c0 17 14 31 32 31z" horiz-adv-x="1000" />

<glyph glyph-name="camera-slash" unicode="&#xe870;" d="M180 670c-11 5-26 3-35-6-13-12-13-32 0-44l71-72c-53-20-91-71-91-132v-265c0-78 63-141 141-141h468c7 0 13 0 19 1l17-16c12-13 32-13 44 0 9 9 11 24 6 35-3 2-6 4-9 6l-625 625c-2 3-4 6-6 9z m676-590c12 21 19 45 19 71v265c0 78-63 141-141 141h-26l-37 75c-16 31-48 51-84 51h-176c-35 0-68-20-84-53l-7-14 146-146c53 11 110-5 151-46 40-41 56-98 46-151l192-193c1 0 1 0 1 0z m-258 258c-5 15-13 30-25 42-13 12-27 21-43 26l68-68z m-216-151c-58 58-64 149-19 214l46-45c-22-40-16-92 17-125 34-34 85-40 125-17l45-46c-65-46-156-40-214 19z" horiz-adv-x="1000" />

<glyph glyph-name="bookmark" unicode="&#xe872;" d="M229 618v-586c0-41 39-67 72-47 79 47 195 117 195 117 0 0 116-70 195-117 32-20 72 6 72 47v586c0 59-48 107-107 107h-320c-59 0-107-48-107-107z" horiz-adv-x="1000" />

<glyph glyph-name="cube" unicode="&#xe873;" d="M836 500c0 1 0 2 0 3l-298-168c-2-1-4-2-5-3v-350c2 1 4 2 6 3l260 150c23 14 37 38 37 65v300z m-28 59c-3 2-6 4-9 6l-260 150c-23 13-52 13-75 0l-260-150c-2-1-4-3-6-4l298-172c4-2 8-2 11 0l301 170z m-641-52c0-2 0-4 0-7v-300c0-27 14-51 37-65l260-150c2-1 4-2 6-3v350c-1 1-3 2-5 3l-298 172z" horiz-adv-x="1000" />

<glyph glyph-name="checkbox" unicode="&#xe875;" d="M310 725c-102 0-185-83-185-185v-375c0-103 83-186 185-186h375c103 0 186 83 186 186v128c0 22-18 40-40 40-22 0-39-18-39-40v-128c0-59-48-107-107-107h-375c-58 0-106 48-106 107v375c0 58 48 106 106 106h188c22 0 40 18 40 39 0 22-18 40-40 40h-188z m509-195c15 16 15 41 0 56-16 16-41 16-56 0l-238-237c-17-17-44-17-62 0l-89 89c-15 16-40 16-56 0-15-15-15-40 0-56l90-89c48-48 125-48 173 0l238 237z" horiz-adv-x="1000" />

<glyph glyph-name="check" unicode="&#xe876;" d="M863 588c-16 16-43 16-59 0l-429-429-179 179c-16 16-42 16-59 0-16-16-16-43 0-59l209-208c16-17 42-17 59 0l458 458c16 16 16 43 0 59z" horiz-adv-x="1000" />

<glyph glyph-name="cast" unicode="&#xe878;" d="M270 683c-78 0-141-63-141-141v0-21c0-20 17-37 38-37 20 0 37 17 37 37v21h-37l37 0c0 37 30 66 66 66h459c49 0 88-39 88-87l0-312c0-48-39-87-88-87l-104-1c-21 0-37-16-37-37 0-21 16-38 37-38l105 1c89 0 162 73 162 162l0 312c0 90-73 162-163 162h-459z m-103-374c-21 0-38-17-38-38 0-20 17-37 38-37 49 0 86-16 110-40 24-24 40-61 40-110 0-21 17-38 37-38 21 0 38 17 38 38 0 65-21 122-62 163-41 41-98 62-163 62z m-38 87c0-20 17-37 38-37 88 0 161-28 213-75 51-46 83-114 83-200 0-21 16-38 37-38 21 0 38 17 38 38 0 105-40 194-108 256-67 61-160 94-263 94-21 0-38-17-38-38z m59-354c34 0 62 28 62 63 0 34-28 62-62 62-35 0-63-28-63-62 0-35 28-63 63-63z" horiz-adv-x="1000" />

<glyph glyph-name="angle-up" unicode="&#xe87c;" d="M738 196c16 16 16 42 0 59l-208 208c-17 16-43 16-59 0l-209-208c-16-17-16-43 0-59 17-17 43-17 59 0l179 178 179-178c16-17 43-17 59 0z" horiz-adv-x="1000" />

<glyph glyph-name="angle-double-down" unicode="&#xe87d;" d="M675 508c17 16 17 43 0 59-16 16-42 16-59 0l-137-137-137 137c-16 16-43 16-59 0-16-16-16-43 0-59l167-167c16-16 42-16 59 0l166 167z m0-208c17 16 17 42 0 59-16 16-42 16-59 0l-137-138-137 138c-16 16-43 16-59 0-16-17-16-43 0-59l167-167c16-16 42-16 59 0l166 167z" horiz-adv-x="1000" />

<glyph glyph-name="angle-double-right" unicode="&#xe87e;" d="M321 546c-16 16-42 16-59 0-16-16-16-42 0-59l137-137-137-137c-16-16-16-43 0-59 17-16 43-16 59 0l167 167c16 16 16 42 0 59l-167 166z m209 0c-17 16-43 16-59 0-17-16-17-42 0-59l137-137-137-137c-17-16-17-43 0-59 16-16 42-16 59 0l166 167c16 16 16 42 0 59l-166 166z" horiz-adv-x="1000" />

<glyph glyph-name="angle-double-up" unicode="&#xe87f;" d="M304 171c-16-16-16-42 0-59 16-16 43-16 59 0l137 137 137-137c17-16 43-16 59 0 16 17 16 43 0 59l-166 167c-17 16-43 16-59 0l-167-167z m0 209c-16-17-16-43 0-59 16-17 43-17 59 0l137 137 137-137c17-17 43-17 59 0 16 16 16 42 0 59l-166 166c-17 16-43 16-59 0l-167-166z" horiz-adv-x="1000" />

<glyph glyph-name="angle-double-left" unicode="&#xe880;" d="M637 154c17-16 43-16 59 0 16 16 16 43 0 59l-137 137 137 137c16 17 16 43 0 59-16 16-42 16-59 0l-166-166c-17-17-17-43 0-59l166-167z m-208 0c16-16 43-16 59 0 16 16 16 43 0 59l-137 137 137 137c16 17 16 43 0 59-16 16-43 16-59 0l-167-166c-16-17-16-43 0-59l167-167z" horiz-adv-x="1000" />

<glyph glyph-name="circle" unicode="&#xe881;" d="M875 350c0 207-168 375-375 375-207 0-375-168-375-375 0-207 168-375 375-375 207 0 375 168 375 375z" horiz-adv-x="1000" />

<glyph glyph-name="clipboard" unicode="&#xe882;" d="M208 529v-471c0-46 38-83 84-83h433c46 0 83 37 83 83v471c0 42-30 77-70 83v-20c0-46-41-75-80-75h-300c-39 0-79 29-79 75v20c-40-6-71-41-71-83z m150-152h300c18 0 32-14 32-31 0-17-14-31-32-31h-300c-17 0-31 14-31 31 0 17 14 31 31 31z m0-162h300c18 0 32-14 32-32 0-17-14-31-32-31h-300c-17 0-31 14-31 31 0 18 14 32 31 32z m-37 398v-21c0-19 17-34 37-34h300c21 0 38 15 38 34v21h-375z m63 45h-26c-20 0-37-15-37-33v-33c0-19 17-34 37-34h300c21 0 38 15 38 34v33c0 18-17 33-38 33h-25c-7 0-14 4-18 11l-11 19c-13 23-39 37-67 37h-57c-29 0-55-14-67-37l-11-19c-4-7-11-11-18-11z" horiz-adv-x="1000" />

<glyph glyph-name="brand-chrome" unicode="&#xe883;" d="M765 85c110 109 137 269 83 404l-202 0 4-4c61-67 68-167 21-242l-163-268c93 2 186 39 257 110z m-599 435c-72-141-49-317 69-435 57-57 128-92 203-105l105 173c-65-14-135 4-186 54-13 13-23 28-32 43l-159 270z m236-72c-55-54-55-142 0-196 54-55 142-55 196 0 53 52 55 136 6 190l-6 6-6 6c-54 49-138 47-190-6z m363 167c-146 147-384 147-530 0-12-11-22-23-32-36l103-174c9 32 26 62 51 88 39 38 88 58 138 59l321 0c-14 22-31 44-51 63z" horiz-adv-x="1000" />

<glyph glyph-name="clock" unicode="&#xe884;" d="M875 350c0 207-168 375-375 375-207 0-375-168-375-375 0-207 168-375 375-375 207 0 375 168 375 375z m-344 141v-151h110c17 0 31-14 31-32 0-17-14-31-31-31h-141c-17 0-31 14-31 31v183c0 17 14 31 31 31 17 0 31-14 31-31z" horiz-adv-x="1000" />

<glyph glyph-name="cloud-lightning" unicode="&#xe885;" d="M167 422c0 119 102 220 231 220 111 0 202-73 225-171 3-11 9-20 19-26 9-6 21-7 31-5 15 4 24 6 32 6 74 0 128-55 128-122 0-28-9-53-24-73-14-18-11-44 7-58 19-14 45-11 59 7 26 35 42 77 42 124 0 116-96 205-212 205-4 0-8 0-12-1-45 117-162 197-295 197-172 0-315-135-315-303 0-92 43-174 109-229 17-15 44-12 58 5 15 18 13 44-5 59-48 41-78 100-78 165z m379-104c12 20 6 46-14 57-20 12-45 6-57-14l-94-156c-8-13-8-29-1-42 8-13 22-21 37-21h93l-56-93c-12-20-6-46 14-58 20-12 46-5 57 15l94 156c8 13 8 29 1 42-8 13-22 21-37 21h-93l56 93z" horiz-adv-x="1000" />

<glyph glyph-name="cloud-drizzle" unicode="&#xe886;" d="M398 642c111 0 202-73 225-171 3-11 9-20 19-26 9-6 21-7 31-5 15 4 24 6 32 6 74 0 128-55 128-122 0-28-9-53-24-73-14-18-11-44 7-58 19-14 45-11 59 7 26 35 42 77 42 124 0 116-96 205-212 205-4 0-8 0-12-1-45 117-162 197-295 197-172 0-315-135-315-303 0-92 43-174 109-229 17-15 44-12 58 5 15 18 13 44-5 59-48 41-78 100-78 165 0 119 102 220 231 220z m123-375c-23 0-42-19-42-42v-42c0-23 19-41 42-41 23 0 42 18 42 41v42c0 23-19 42-42 42z m-125 41c0 23-19 42-42 42-23 0-41-19-41-42v-41c0-23 18-42 41-42 23 0 42 19 42 42v41z m292 42c-23 0-42-19-42-42v-41c0-23 19-42 42-42 23 0 41 19 41 42v41c0 23-18 42-41 42z m-125-292c0 23-19 42-42 42-23 0-42-19-42-42v-41c0-23 19-42 42-42 23 0 42 19 42 42v41z m-209 125c-23 0-41-18-41-41v-42c0-23 18-42 41-42 23 0 42 19 42 42v42c0 23-19 41-42 41z m375-41c0 23-18 41-41 41-23 0-42-18-42-41v-42c0-23 19-42 42-42 23 0 41 19 41 42v42z" horiz-adv-x="1000" />

<glyph glyph-name="cloud-slash" unicode="&#xe888;" d="M178 716c-12 12-32 12-44 0-12-12-12-32 0-44l99-100c-47-47-77-111-77-181 0-143 116-259 259-259h259l127-127c12-12 32-12 44 0 12 12 12 32 0 44l-667 667z m728-424c0 92-75 164-170 164-14 0-27-3-41-7-27 118-136 203-266 203-31 0-61-5-89-14l485-485c49 27 81 80 81 139z" horiz-adv-x="1000" />

<glyph glyph-name="cloud-download" unicode="&#xe889;" d="M83 267c0-115 94-209 209-209h458c92 0 167 75 167 167 0 92-75 167-167 167 0 138-112 250-250 250-110 0-203-71-236-170-102-14-181-100-181-205z m456 146v-115l24 24c15 15 40 15 55 0 15-15 15-40 0-55l-90-89c-3-4-7-6-11-9-14-7-32-4-44 8l-91 90c-15 15-15 40 0 55 15 15 40 15 55 0l24-24v115c0 21 18 38 39 38 21 0 39-17 39-38z" horiz-adv-x="1000" />

<glyph glyph-name="sidebar" unicode="&#xe8a0;" d="M490 642v-584h260c69 0 125 56 125 125v334c0 69-56 125-125 125h-260z m-63 0h-177c-69 0-125-56-125-125v-334c0-69 56-125 125-125h177v584z m-217-229c0 17 14 31 32 31h83c17 0 31-14 31-31 0-18-14-32-31-32h-83c-18 0-32 14-32 32z m32-94h83c17 0 31-14 31-31 0-18-14-32-31-32h-83c-18 0-32 14-32 32 0 17 14 31 32 31z" horiz-adv-x="1000" />

<glyph glyph-name="bell-plus" unicode="&#xe8a5;" d="M698 777c0 17-14 31-31 31-18 0-32-14-32-31l0-52-52 0c-17 0-31-14-31-31 0-17 14-31 31-31l52 0v-53c0-17 14-31 32-31 17 0 31 14 31 31v53l52 0c17 0 31 14 31 31 0 17-14 31-31 31l-52 0 0 52z m78-209c-29-25-67-41-109-41-92 0-167 75-167 167 0 30 8 58 22 82-7 1-15 1-22 1-159 0-288-129-288-287l0-152c-50-13-87-58-87-112 0-64 52-116 116-116h514c64 0 116 52 116 116 0 53-35 97-84 111l0 153c0 27-3 53-11 78z m-405-517c-15-8-22-26-14-42l1-3c3-7 9-19 15-27 27-40 74-67 127-67 65 0 121 41 144 98 6 16-2 34-18 41-16 6-34-2-40-18-14-34-47-58-86-58-32 0-59 16-76 40-3 3-6 10-10 18l-1 3c-8 16-26 22-42 15z" horiz-adv-x="1000" />

<glyph glyph-name="angle-left" unicode="&#xe8ab;" d="M613 588c-16 16-43 16-59 0l-208-208c-17-17-17-43 0-59l208-209c16-16 43-16 59 0 16 17 16 43 0 59l-179 179 179 179c16 16 16 43 0 59z" horiz-adv-x="1000" />

<glyph glyph-name="cloud" unicode="&#xe945;" d="M264 472c-102-14-181-100-181-205 0-115 94-209 209-209h458c92 0 167 75 167 167 0 92-75 167-167 167 0 138-112 250-250 250-110 0-203-71-236-170z" horiz-adv-x="1000" />

<glyph glyph-name="bold" unicode="&#xe94a;" d="M208 683v-666c0-23 19-42 42-42h333c115 0 209 93 209 208 0 82-47 153-116 187 37 38 60 90 60 147 0 115-93 208-208 208h-278c-23 0-42-19-42-42z m84-375h291c69 0 125-56 125-125 0-69-56-125-125-125h-291v250z m236 84h-236v250h236c69 0 125-56 125-125 0-69-56-125-125-125z" horiz-adv-x="1000" />

<glyph glyph-name="users" unicode="&#xe95d;" d="M696 515c-36-36-36-95 0-130 36-36 94-36 130 0 36 35 36 94 0 130-36 35-94 35-130 0z m-100 87c-52 53-137 53-190 0-52-52-52-137 0-190 53-52 138-52 190 0 53 53 53 138 0 190z m-254-292c-54-21-90-73-90-131l0-22c0-42 27-79 67-90 49-15 110-22 182-22 73 0 134 7 183 22 40 11 67 48 67 90l0 22c-1 58-36 110-90 131-49 19-103 29-160 29-56 0-110-10-159-29z m440-140h99c19 0 38 16 35 39-7 63-61 112-127 112h-85c53-32 87-93 78-151z m-485 345c-36 35-94 35-130 0-36-36-36-95 0-130 36-36 94-36 130 0 36 35 36 94 0 130z m-79-345c-9 58 25 119 78 151h-85c-66 0-120-49-127-112-3-23 16-39 35-39h99z" horiz-adv-x="1000" />

<glyph glyph-name="comment-activity" unicode="&#xe967;" d="M463-4c18-28 56-28 75 0l79 121h91c92 0 167 74 167 166v234c0 92-75 166-167 166h-416c-92 0-167-74-167-166v-234c0-92 75-166 167-166h91l80-121z m118 531l48-141h38c17 0 31-14 31-32 0-17-14-31-31-31h-50c-20 0-37 12-43 31l-16 47-36-158c-3-14-15-24-29-24-14-1-27 8-31 22l-33 106c-8-15-23-24-40-24h-56c-17 0-31 14-31 31 0 18 14 32 31 32h46l30 56c5 12 17 18 30 17 13-1 23-10 27-22l21-66 34 153c3 13 15 23 29 24 14 1 27-8 31-21z m-29-10l-31 7c0 0 0 0 31-7z" horiz-adv-x="1000" />

<glyph glyph-name="book-open" unicode="&#xe96f;" d="M500 583c0 56-84 100-187 100-104 0-188-44-188-100v-509c0-20 26-30 41-18 35 28 87 61 147 61 78 0 121-22 156-59v417c0 17 14 31 31 31 17 0 31-14 31-31v-426c33 30 85 68 157 68 68 0 119-35 152-65 13-12 35-4 35 15v516c0 56-84 100-187 100-104 0-188-44-188-100z" horiz-adv-x="1000" />

<glyph glyph-name="certificate" unicode="&#xe975;" d="M750 725h-500c-69 0-125-56-125-125v-375c0-69 56-125 125-125h124c-58 37-96 102-96 175 0 115 94 208 209 208 115 0 208-93 208-208 0-73-38-138-95-175h150c69 0 125 56 125 125v375c0 69-56 125-125 125z m-112-450c0 84-68 152-151 152-84 0-152-68-152-152 0-57 31-106 78-132v-146c0-12 11-20 22-16l43 16 42-16c11-4 23 4 23 16v137c56 23 95 77 95 141z m-221 354h166c18 0 32-14 32-31 0-17-14-31-32-31h-166c-18 0-32 14-32 31 0 17 14 31 32 31z" horiz-adv-x="1000" />

<glyph glyph-name="box" unicode="&#xe976;" d="M917 663c0 34-28 62-63 62h-708c-35 0-63-28-63-62v-84c0-34 28-62 63-62h708c35 0 63 28 63 62l0 84z m-50-563v375h-734v-375c0-69 56-125 125-125h484c69 0 125 56 125 125z m-511 200c0 17 14 31 32 31h225c17 0 31-14 31-31 0-17-14-31-31-31h-225c-18 0-32 14-32 31z" horiz-adv-x="1000" />

<glyph glyph-name="browser-code" unicode="&#xe977;" d="M83 600v-31h834v31c0 92-75 167-167 167h-500c-92 0-167-75-167-167z m0-94v-406c0-92 75-167 167-167h500c92 0 167 75 167 167v406h-834z m450-117c17-4 27-21 24-37l-52-234c-4-17-21-27-38-23-17 3-27 20-23 37l52 233c3 17 20 28 37 24z m118-67l59-58c12-12 12-32 0-44l-59-59c-12-12-32-12-44 0-12 13-12 32 0 45l36 36-36 36c-12 12-12 32 0 44 12 12 32 12 44 0z m-258 0c12-12 12-32 0-44l-36-36 36-36c12-13 12-32 0-45-12-12-32-12-44 0l-59 59c-12 12-12 32 0 44l59 58c12 12 32 12 44 0z m-122 309c0-17-14-31-31-31-18 0-32 14-32 31 0 18 14 32 32 32 17 0 31-14 31-32z m52-31c-17 0-31 14-31 31 0 18 14 32 31 32 17 0 31-14 31-32 0-17-14-31-31-31z" horiz-adv-x="1000" />

<glyph glyph-name="comment" unicode="&#xe979;" d="M352 185v-107c0-18 23-28 36-15 40 41 87 88 120 120h107c136 0 256 106 260 243 4 141-109 257-250 257h-241c-127 0-241-91-257-217-18-145 87-269 225-281z" horiz-adv-x="1000" />

<glyph glyph-name="file-attach" unicode="&#xe980;" d="M573 613c-1 76 61 137 137 137l0 0c76 0 138-62 139-138l-4-219 0-1c0-45-37-82-82-81-45 0-82 37-83 82l4 219 0 1c0 14 12 26 27 26 14 0 26-12 26-27l-4-191c0-16 13-29 29-29 16-1 29 12 30 28l4 191 0 1c0 47-38 85-85 85-47 0-85-37-85-84l-4-219 0-1c0-77 63-140 141-141h0c77 0 140 63 140 140l4 219 0 0c0 109-89 197-197 197l0 0c-108 1-196-87-196-195l-4-219c0-16 13-29 29-29 16-1 30 12 30 28l4 219 0 1z m-98-250v276c0 36 9 69 25 99h-42-187c-81 0-146-66-146-146v-542c0-81 65-146 146-146h375c80 0 146 65 146 146v162c-152-26-213 96-213 130-41-63-104-21-104 21z" horiz-adv-x="1000" />

<glyph glyph-name="attach" unicode="&#xe9e6;" d="M685 638c70-1 127-58 128-130l-4-209 0-1c0-42-33-75-74-75-40 0-74 34-75 76l4 209 0 1c0 13 10 22 21 22 12 0 22-10 22-22l-4-183c0-17 14-32 31-32 17 0 31 13 32 31l4 183 0 1c0 46-38 84-84 84-47 1-84-37-84-84l-4-210 0 0c0-76 61-138 137-139 76 0 136 62 136 138l4 209 0 1c0 105-85 192-190 192-105 0-189-85-189-191l-4-209c0-17 14-32 31-32 17 0 32 13 32 31l4 210 0 0c-1 72 56 129 126 129z m-243-128c0 56 18 107 50 148h-208c-76 0-137-61-137-137v-408c0-76 61-138 137-138h442c76 0 137 62 137 138v43c-34-31-79-50-128-50-79 1-146 48-175 116-12-5-24-8-38-8-47 1-85 40-84 87l4 209z" horiz-adv-x="1000" />

<glyph glyph-name="upload" unicode="&#xe9e8;" d="M500 197c23 0 42 19 42 42v344l114-114c16-17 42-17 59 0 16 16 16 42 0 59l-185 185c-7 7-16 10-24 12-2 0-4 0-6 0-12 0-23-5-30-13l-185-184c-16-17-16-43 0-59 17-17 43-17 59 0l114 114v-344c0-23 19-42 42-42z m292 42v-148c0-18-15-33-33-33h-518c-18 0-33 15-33 33v148c0 23-18 42-41 42-23 0-42-19-42-42v-148c0-64 52-116 116-116h518c64 0 116 52 116 116v148c0 23-19 42-42 42-23 0-41-19-41-42z" horiz-adv-x="1000" />

<glyph glyph-name="thumbtack-star" unicode="&#xe9e9;" d="M642 350c-103 0-187 84-187 188 0 58 27 111 69 145l-227 0-4 0c-14-2-25-14-25-28 0-16 13-29 29-29l50 0-13-255-2-2c-69-34-110-94-122-176l-1-11c-2-17 11-32 28-32l215 0 0-146 0-4c2-14 14-25 29-25 16 0 29 13 29 29l0 146 224 0c17 0 30 15 28 32l-1 11c-10 70-41 123-93 159-8-1-17-2-26-2z m138 188c0 75-62 137-138 137-76 0-137-62-137-137 0-76 61-138 137-138 76 0 138 62 138 138z m-145 79c3 7 12 7 15 0l18-37c1-3 3-4 6-5l40-6c7-1 9-9 5-14l-30-30c-2-2-3-5-2-7l7-43c1-7-6-12-13-8l-35 19c-2 1-5 1-8 0l-35-19c-6-4-13 1-12 8l7 43c0 2 0 5-2 7l-30 30c-5 5-2 13 5 14l40 6c3 1 5 2 6 5l18 37z" horiz-adv-x="1000" />

<glyph glyph-name="brand-bunnynet" unicode="&#xe9ea;" d="M727 535l-161 225c-8 12-12 5-16-2l-1-1c-19-35-22-72-10-110 3-7 7-12 14-16 44-24 88-48 133-73l41-23z m-221-457l0 0c-7-7-13-13-20-20 59-15 109 3 129 45 36 73 72 146 108 220 5 12 13 19 26 22 39 9 75 24 109 44 30 17 30 39 0 55-65 35-131 71-196 106-108 59-215 117-323 176-18 10-22 4-24-13-10-65 38-140 106-164 31-11 64-16 96-22 6-1 11-2 17-3 33-5 67-11 100-18 25-6 31-19 24-45-13-50-66-75-112-52l-4 2c-24 12-47 24-74 30-91 21-181-14-229-91-48-77-41-149 25-229 37-46 81-86 125-127 20-18 40-37 59-56 9-8 13-5 19 3 17 26 15 62-7 88-16 18-34 34-52 50-21 18-41 37-55 62-28 46-20 105 19 143 39 38 100 45 145 17 63-39 76-120 28-180-12-15-25-29-39-43z m-49 166c-24 1-45-18-46-42-1-25 20-46 45-46 24-1 44 19 44 43 0 24-19 45-43 45z m-284 144h48v48c0 27-21 49-48 49-26 0-48-22-48-49 0-26 22-48 48-48z" horiz-adv-x="1000" />

<glyph glyph-name="hand-pointer" unicode="&#xe9ec;" d="M364 234c0-8-10-11-15-5l-68 77c-1 0-1 1-2 1-23 26-62 29-89 7-28-23-31-63-8-91l203-235c0 0 75-96 197-96 123 0 251 64 251 203v310c0 35-26 64-58 64-33 0-59-29-59-64l0 32c0 35-26 64-59 64-32 0-59-29-59-64v42c0 36-26 64-58 64-33 0-59-28-59-64v182c0 35-26 64-59 64-32 0-58-29-58-64v-427z" horiz-adv-x="1000" />

<glyph glyph-name="image-plus" unicode="&#xe9ed;" d="M704 313l-46 37c-33 29-83 29-112 0l-54-50c-21-17-50-17-67 0l-112 108c-38 38-96 38-134 0l-29-33v133c0 63 50 109 108 109h396c63 0 109-50 109-109v-183c29 0 50-8 70-17v200c0 96-79 175-175 175h-400c-95 0-175-79-175-175v-270c0-100 80-180 175-180h392c-25 30-42 67-42 109 0 62 42 121 96 146z m-212 100c46 0 83 37 83 83 0 46-37 83-83 83-46 0-84-37-84-83 0-46 38-83 84-83z m366-225h-58v54c0 16-12 29-29 29-17 0-25-13-25-29v-54h-54c-17 0-29-13-29-30 0-16 12-29 29-29h54v-54c0-17 12-29 25-29 12 0 29 12 29 29v54h58c17 0 25 13 25 29 0 17-12 30-25 30z" horiz-adv-x="1000" />

<glyph glyph-name="minimize" unicode="&#xe9ee;" d="M250 17c-69 0-125 56-125 125v416c0 69 56 125 125 125h500c69 0 125-56 125-125v-416c0-69-56-125-125-125h-500z m-17 104h534c14 0 25 11 25 25v75c0 14-11 25-25 25h-534c-13 0-25-11-25-25v-75c0-14 12-25 25-25z" horiz-adv-x="1000" />

<glyph glyph-name="spinner-alt" unicode="&#xe9ef;" d="M617 608c31-17 69-6 85 24 17 30 6 68-24 85-77 42-166 58-253 45-87-13-167-54-229-117-61-63-100-145-110-232-10-87 8-176 53-251 45-76 113-135 195-168 81-33 171-38 256-15 85 23 160 73 213 143 54 70 82 156 82 244 0 34-28 62-62 62-35 0-63-28-63-62 0-61-19-120-56-168-37-48-88-83-147-99-58-16-120-12-176 11-56 23-103 63-134 115-31 52-44 113-37 173 7 60 34 116 76 160 42 43 98 72 157 81 60 9 121-2 174-31z" horiz-adv-x="1000" />

<glyph glyph-name="picture-in-picture" unicode="&#xe9f0;" d="M83 600v-417c0-69 56-125 125-125h198c18 0 32 14 32 32v185c0 53 42 96 95 96h269c17 0 31 14 31 31v198c0 69-56 125-125 125h-500c-69 0-125-56-125-125z m469-271c-40 0-73-32-73-73v-187c0-40 33-73 73-73h271c40 0 73 33 73 73v187c0 41-33 73-73 73h-271z" horiz-adv-x="1000" />

<glyph glyph-name="video-plus" unicode="&#xe9f1;" d="M567 600h-342c-54 0-100-46-100-100v-296c0-54 46-100 100-100h342c54 0 100 46 100 100v296c-4 54-46 100-100 100z m-79-279h-63v-63c0-20-12-33-29-33-17 0-33 13-33 29v67h-63c-17 0-29 12-29 29 0 17 12 29 29 29h63v67c0 17 16 29 33 29 17 0 29-12 29-29v-63h63c16 0 29-12 29-29 4-21-13-33-29-33z m308 217l-83-67v-229l83-67c33-25 79-4 79 38v283c0 42-46 67-79 42z" horiz-adv-x="1000" />

<glyph glyph-name="cart-slash" unicode="&#xe9f2;" d="M765 400c-5-18-22-32-41-32h-139l-371 329v49h-71c-17 0-31 14-31 31 0 17 14 31 31 31h103c17 0 31-14 31-31v-102h496c27 0 47-25 41-51l-49-224z m-17-456c-58 0-105 46-105 104 0 31 14 59 36 78l-125 108h-266c-41 0-73 33-73 73v223l-163 141c-13 11-14 31-3 44 12 13 31 15 44 3l122-105v0l15-13 702-612c13-11 15-31 3-44-11-13-31-14-44-3l-57 49c-18-28-50-46-86-46z m-347 424h-124v-60c0-6 5-11 11-11v0h195l-82 71z m409-133c17 0 31 14 31 31 0 17-14 31-31 31h-144l71-62h73z m-375-187c0-58-47-104-104-104-58 0-104 46-104 104 0 57 46 104 104 104 57 0 104-47 104-104z" horiz-adv-x="1000" />

<glyph glyph-name="brand-intercom" unicode="&#xe9f3;" d="M808 767c-101 0-202 0-303 0-101 0-202 0-303 0-76 0-119-43-119-118 0-199 0-398 0-598 0-75 43-118 119-118 201 0 403 0 604 0 77 0 119 42 119 119 0 199 0 397 0 596 0 76-42 119-117 119z m-164-127c18 0 28-12 28-37 0-58 0-117 0-175 0-59 0-118 0-176 0-22-11-36-27-36-17-1-28 13-28 35 0 118 0 236 0 353 0 24 10 35 27 36z m-167-23c0 24 10 37 28 37 18 0 27-13 27-38 0-63 0-127 0-190 0-64 0-127 0-191 0-24-10-37-28-37-18 0-27 13-27 38 0 127 0 254 0 381z m-140-13c0 23 9 35 26 36 19 0 29-12 29-37 0-117 0-234 0-351 0-22-11-36-27-36-18-1-28 13-28 37 0 58 0 117 0 176 0 58 0 117 0 175z m-140-54c0 23 11 35 28 35 16-1 27-14 27-34 0-79 0-157 0-235 0-22-11-35-28-34-17 0-27 12-27 34 0 39 0 78 0 118 0 39 0 78 0 116z m601-417c-51-38-108-60-169-73-41-9-83-14-126-14-98 2-191 22-275 75-6 4-12 8-18 13-14 10-18 24-7 38 10 14 25 15 39 5 54-39 115-61 180-70 123-17 240-2 345 70 14 10 29 9 39-5 11-15 6-29-8-39z m13 183c0-22-9-33-26-34-18 0-28 12-28 34 0 78 0 156 0 235 0 20 10 33 26 34 17 0 28-13 28-35 0-39 0-78 0-118 0-39 1-77 0-116z" horiz-adv-x="1000" />

<glyph glyph-name="cloud-check" unicode="&#xe9f4;" d="M83 267c0 105 79 191 181 205 33 99 126 170 236 170 138 0 250-112 250-250 92 0 167-75 167-167 0-92-75-167-167-167h-458c-115 0-209 94-209 209z m395-58l146 147c12 12 12 31 0 43-12 12-31 12-43 0l-125-125-45 45c-12 12-32 12-44 0-12-12-12-31 0-43l67-67c12-12 32-12 44 0z" horiz-adv-x="1000" />

<glyph glyph-name="cloud-exclamation" unicode="&#xe9f5;" d="M83 267c0 105 79 191 181 205 33 99 126 170 236 170 138 0 250-112 250-250 92 0 167-75 167-167 0-92-75-167-167-167h-458c-115 0-209 94-209 209z m413 210l-3 0 0 0c-8-1-16-4-21-10-6-5-10-13-10-21l0 0 5-129 0-2 0-1c2-14 14-24 29-24 15 0 28 12 29 27l5 128 0 3 0 0c-1 9-5 16-11 21-6 5-14 8-22 8l-1 0z m-30-261c0-18 14-32 32-32 18 0 32 14 32 32 0 17-14 32-32 32-18 0-32-15-32-32z" horiz-adv-x="1000" />

<glyph glyph-name="cloud-times" unicode="&#xe9f6;" d="M83 267c0 105 79 191 181 205 33 99 126 170 236 170 138 0 250-112 250-250 92 0 167-75 167-167 0-92-75-167-167-167h-458c-115 0-209 94-209 209z m320 118c-12-11-12-30 0-42l47-47-47-47c-12-11-12-30 0-42 11-12 30-12 42 0l47 47 47-47c12-12 31-12 42 0 12 12 12 31 0 42l-47 47 47 47c12 12 12 31 0 42-11 12-30 12-42 0l-47-47-47 47c-12 12-31 12-42 0z" horiz-adv-x="1000" />

<glyph glyph-name="crown" unicode="&#xe9f7;" d="M504 683c-10 0-20-4-26-13l-145-195-154 145c-10 9-24 11-37 5-12-6-19-20-17-33l62-429c3-16 16-28 32-28h565c16 0 29 12 32 28l61 429c2 13-4 27-17 33-12 6-27 4-37-5l-153-145-140 195c-6 8-15 13-26 13z m-293-634c0-18 15-32 32-32l516 0c18 0 33 14 33 32 0 18-15 32-33 32l-516 0c-17 0-32-14-32-32z" horiz-adv-x="1000" />

<glyph glyph-name="emoticon-confused" unicode="&#xe9f8;" d="M492 767c-225 0-409-184-409-409 0-225 184-408 409-408 225 0 408 183 408 408 0 225-187 409-408 409z m112-284c0 17 13 34 34 34 20 0 29-13 29-34v-41c0-17-13-34-34-34-20 0-33 13-33 34v41h4z m-291 0c0 21 12 34 29 34 16 0 33-13 33-34v-41c0-17-12-34-33-34-21 0-29 17-29 34v41z m350-225l-313-70c-17-5-33 8-37 25-5 16 8 33 25 37l312 71c17 4 33-8 38-25 4-17-9-33-25-38z" horiz-adv-x="1000" />

<glyph glyph-name="folder-download" unicode="&#xe9f9;" d="M564 571h186c69 0 125-56 125-125v-263c0-69-56-125-125-125h-500c-69 0-125 56-125 125v334c0 69 56 125 125 125h149c15 0 29-4 42-12l81-47c13-8 28-12 42-12z m-182-236c-9-9-9-24 0-33l102-102c9-9 23-9 32 0l102 102c9 9 9 24 0 33-8 9-23 9-32 0l-63-64v181c0 13-10 23-23 23-13 0-23-10-23-23v-181l-63 64c-9 9-23 9-32 0z" horiz-adv-x="1000" />

<glyph glyph-name="folder-move" unicode="&#xe9fa;" d="M564 571h186c69 0 125-56 125-125v-263c0-69-56-125-125-125h-500c-69 0-125 56-125 125v334c0 69 56 125 125 125h149c15 0 29-4 42-12l81-47c13-8 28-12 42-12z m-64-118c-9-9-9-24 0-32l63-64h-181c-13 0-23-10-23-23 0-12 10-22 23-22h181l-63-64c-9-9-9-23 0-32 9-9 23-9 32 0l102 102c9 9 9 24 0 32l-102 103c-9 9-23 9-32 0z" horiz-adv-x="1000" />

<glyph glyph-name="folder-upload" unicode="&#xe9fb;" d="M564 571h186c69 0 125-56 125-125v-263c0-69-56-125-125-125h-500c-69 0-125 56-125 125v334c0 69 56 125 125 125h149c15 0 29-4 42-12l81-47c13-8 28-12 42-12z m-182-237c9-9 23-9 32 0l63 63v-181c0-12 10-22 23-22 13 0 23 10 23 22v181l63-63c9-9 24-9 32 0 9 9 9 23 0 32l-102 102c-9 9-23 9-32 0l-102-102c-9-9-9-23 0-32z" horiz-adv-x="1000" />

<glyph glyph-name="grip-h" unicode="&#xe9fc;" d="M333 204c0 58-46 104-104 104-57 0-104-46-104-104 0-57 47-104 104-104 58 0 104 47 104 104z m292 0c0 58-47 104-104 104-58 0-104-46-104-104 0-57 46-104 104-104 57 0 104 47 104 104z m188 104c-58 0-105-46-105-104 0-57 47-104 105-104 57 0 104 47 104 104 0 58-47 104-104 104z m-480 209c0 57-46 104-104 104-57 0-104-47-104-104 0-58 47-104 104-104 58 0 104 46 104 104z m292 0c0 57-47 104-104 104-58 0-104-47-104-104 0-58 46-104 104-104 57 0 104 46 104 104z m188 104c-58 0-105-47-105-104 0-58 47-104 105-104 57 0 104 46 104 104 0 57-47 104-104 104z" horiz-adv-x="1000" />

<glyph glyph-name="grip-v" unicode="&#xe9fd;" d="M354 517c58 0 104 46 104 104 0 57-46 104-104 104-57 0-104-47-104-104 0-58 47-104 104-104z m0-292c58 0 104 47 104 104 0 58-46 104-104 104-57 0-104-46-104-104 0-57 47-104 104-104z m104-187c0 57-46 104-104 104-57 0-104-47-104-104 0-58 47-105 104-105 58 0 104 47 104 105z m209 479c57 0 104 46 104 104 0 57-47 104-104 104-58 0-104-47-104-104 0-58 46-104 104-104z m0-292c57 0 104 47 104 104 0 58-47 104-104 104-58 0-104-46-104-104 0-57 46-104 104-104z m104-187c0 57-47 104-104 104-58 0-104-47-104-104 0-58 46-105 104-105 57 0 104 47 104 105z" horiz-adv-x="1000" />

<glyph glyph-name="image-move" unicode="&#xe9fe;" d="M593 148c0 50 40 90 88 90h51c1 14 5 29 13 42l-85 70c-31 30-82 30-114 0l-53-51c-20-19-50-18-69 1l-111 109c-37 36-95 36-133 0l-30-32v130c0 61 49 110 110 110h397c61 0 111-49 111-110v-203c18 14 42 19 66 16v187c-1 97-80 176-177 176h-397c-97 0-177-79-177-176v-272c0-97 80-177 177-177h397c2 0 3 1 5 1 2 0 4 0 6 1-42 6-75 43-75 88z m-99 265c46 0 83 37 83 83 0 46-37 83-83 83-46 0-84-37-84-83 0-46 38-83 84-83z m308-161c10 11 26 11 36 0l77-86c9-11 9-27 0-38l-1 0-76-85c-10-10-27-10-37 0-9 11-9 28 0 38l36 39h-156c-15 0-26 13-26 28 0 14 11 27 26 27h157l-36 39c-10 11-10 28 0 38z" horiz-adv-x="1000" />

<glyph glyph-name="mobile-slash" unicode="&#xe9ff;" d="M281 664c9 23 32 40 58 40h292c34 0 62-28 62-63v-400l63-64v465c0 69-56 125-125 125h-292c-44 0-82-23-104-57 1-1 3-2 4-3l42-43z m-147 21c-12-13-12-32 0-45l80-82v-500c0-69 56-125 125-125h292c52 0 97 32 116 78l36-37c12-13 32-13 44-1 13 12 13 32 1 44l-649 667c-12 12-32 13-45 1z m143-191l342-352h-342v352z m152-479c-17 0-31 14-31 31 0 17 14 31 31 31h112c17 0 32-14 32-31 0-18-15-31-32-31h-112z" horiz-adv-x="1000" />

<glyph glyph-name="split" unicode="&#xea00;" d="M693 437l210 140c16 11 16 34 0 45l-210 140c-18 12-42-1-42-23v-102h-115l-212-245h-157c-23 0-42-19-42-42 0-23 19-42 42-42h157l212-245h115v-102c0-22 24-35 42-23l210 140c16 11 16 34 0 45l-210 140c-18 12-42-1-42-23v-94h-77l-176 204 176 204h77v-94c0-22 24-35 42-23z" horiz-adv-x="1000" />

<glyph glyph-name="star-slash" unicode="&#xea01;" d="M720 264l137 141c24 24 10 65-23 70l-186 29c-14 2-26 11-31 23l-82 174c-15 32-61 32-76 0l-74-159 333-281c0 1 1 2 2 3z m-560 211c-33-5-47-46-23-70l137-141c9-9 13-23 11-36l-32-195c-5-35 31-60 61-44l163 90c12 7 27 7 40 0l162-90c30-16 67 9 61 44l-9 57 69-58c13-11 33-10 44 3 11 14 9 33-4 44l-643 542c-14 11-33 10-44-4-11-13-10-33 3-44l100-83-96-15z" horiz-adv-x="1000" />

<glyph glyph-name="stopwatch" unicode="&#xea02;" d="M334 777c0 17 15 31 32 31h229c17 0 31-14 31-31 0-17-14-31-31-31h-83v-62c65-5 127-26 180-59l36 54c9 15 29 18 43 9 15-10 19-29 9-44l-38-57c83-73 135-179 135-298 0-220-177-397-397-397-219 0-397 177-397 397 0 208 161 379 366 395v62h-83c-17 0-32 14-32 31z m189-262c0 23-18 42-41 42-24 0-42-19-42-42l0-210c0-23 18-42 42-42 23 0 41 19 41 42l0 210z" horiz-adv-x="1000" />

<glyph glyph-name="strikethrough" unicode="&#xea03;" d="M546 405c-23 10-45 20-66 30-21 10-40 21-56 32-17 12-30 26-40 41-10 16-15 34-15 56 0 35 12 64 35 86 24 23 55 34 95 34 25 1 49-4 72-16 24-11 43-22 59-33 11-8 24-13 38-13 14-1 24 5 31 17 9 14 9 29 0 44-8 15-22 29-42 41-20 12-44 22-71 30-28 8-57 13-87 13-29 0-58-5-85-14-26-9-50-22-70-39-21-17-37-39-50-64-12-25-19-53-19-85 0-34 6-63 17-86 10-24 26-44 46-61 7-6 14-12 22-18l-206 0c-16 0-29-13-29-29 0-16 13-29 29-29l675 0c16 0 29 13 29 29 0 16-13 29-29 29l-273 0c-4 2-7 3-10 5z m50-131c14-13 25-29 33-47 9-17 13-37 13-58 0-22-5-42-14-61-8-18-20-34-35-48-15-13-32-23-51-31-18-8-38-11-58-11-33 0-63 5-90 17-28 11-53 24-77 40-13 8-25 13-36 14-12 0-22-5-30-15-10-14-10-31 0-49 10-19 31-37 65-54 22-11 48-20 76-28 29-7 57-10 87-10 38 1 72 8 103 20 31 12 58 28 81 50 23 21 40 47 53 76 12 28 18 60 18 94 0 31-4 59-13 82-5 14-12 26-20 38h-128c8-6 15-12 23-19z" horiz-adv-x="1000" />

<glyph glyph-name="trophy-slash" unicode="&#xea04;" d="M195 682c-13 12-32 12-45 0-12-12-12-31 0-44l22-23h-5c-23 0-42-18-42-41v-129c0-57 46-102 102-102h44c26-86 98-152 188-167-1-1-1-3-1-4v-134h-43c-10 0-19-2-27-6-14-7-25-21-30-37-1-5-2-10-2-16 0-1 1-2 2-2h284c1 0 2 1 2 2 0 6-1 11-2 16-5 16-16 29-30 37-8 3-17 6-27 6h-43v134c0 1 0 3 0 4 16 3 31 7 46 13l149-153c12-12 32-12 44 0 12 12 13 31 1 44l-521 533 0 2h-2l-64 67z m38-129l28-29v-113c0-2 0-4 0-6h-33c-23 0-40 18-40 40v108h45z m506 89c0 23-19 41-42 41h-394c-8 0-14-2-20-6l404-414c19 24 33 51 42 81l0-1h44c57 0 102 46 102 102v129c0 23-19 41-42 41h-94v27z m0-231v142h74v-108c0-22-18-40-40-40h-34c0 2 0 4 0 6z" horiz-adv-x="1000" />

<glyph glyph-name="u-turn-down" unicode="&#xea05;" d="M137 268c-16-16-16-42 0-59l222-222c17-16 43-16 59 0l223 222c16 17 16 43 0 59-17 17-43 17-59 0l-151-151v344c0 100 80 181 180 181 100 0 181-81 181-181v-111c0-23 18-42 41-42 23 0 42 19 42 42v111c0 146-118 264-264 264-146 0-264-118-264-264v-344l-151 151c-16 17-42 17-59 0z" horiz-adv-x="1000" />

<glyph glyph-name="u-turn-left" unicode="&#xea06;" d="M418 713c-16 16-42 16-59 0l-222-222c-16-17-16-43 0-59l222-223c17-16 43-16 59 0 17 17 17 43 0 59l-151 151h344c100 0 181-80 181-180 0-100-81-181-181-181h-111c-23 0-42-18-42-41 0-23 19-42 42-42h111c146 0 264 118 264 264 0 146-118 264-264 264h-344l151 151c17 16 17 43 0 59z" horiz-adv-x="1000" />

<glyph glyph-name="u-turn-right" unicode="&#xea07;" d="M582 713c16 16 42 16 59 0l222-222c16-17 16-43 0-59l-222-223c-17-16-43-16-59 0-17 17-17 43 0 59l151 151h-344c-100 0-181-80-181-180 0-100 81-181 181-181h111c23 0 42-18 42-41 0-23-19-42-42-42h-111c-146 0-264 118-264 264 0 146 118 264 264 264h344l-151 151c-17 16-17 43 0 59z" horiz-adv-x="1000" />

<glyph glyph-name="u-turn-up" unicode="&#xea08;" d="M863 432c16 16 16 42 0 59l-222 222c-17 16-43 16-59 0l-223-222c-16-17-16-43 0-59 17-17 43-17 59 0l151 151v-344c0-100-80-181-180-181-100 0-181 81-181 181v111c0 23-18 42-41 42-23 0-42-19-42-42l0-111c0-146 118-264 264-264 146 0 264 118 264 264v344l151-151c16-17 43-17 59 0z" horiz-adv-x="1000" />

<glyph glyph-name="user-arrow-down" unicode="&#xea09;" d="M484 363c99 0 179 81 179 181 0 100-80 181-179 181-99 0-179-81-179-181 0-100 80-181 179-181z m123-282c0 17 6 32 18 44 23 23 61 24 86 3v134c-33 17-71 28-110 28h-244c-116-5-211-93-231-207 0-2-1-5-1-8 0-3 0-6 0-10v-1c0-37 30-67 67-67h473l-40 40c-12 11-18 27-18 44z m152-119c0-1 1-1 1-1 2-2 4-3 5-4 5-2 11-2 16 0 3 2 5 3 7 5l104 104c8 9 8 22 0 30-8 8-21 8-29 0l-69-69v241c0 12-9 21-21 21-12 0-21-9-21-21v-241l-69 69c-8 8-21 8-29 0-9-8-8-22 1-30l104-104z" horiz-adv-x="1000" />

<glyph glyph-name="user-arrow-up" unicode="&#xea0a;" d="M485 363c99 0 179 81 179 181 0 100-80 181-179 181-100 0-180-81-180-181 0-100 80-181 180-181z m140-243c-24 24-24 64 0 88l65 65c-28 10-57 17-89 17h-243c-117-5-212-93-232-208 0-3-1-9-1-17v-1c0-37 30-67 67-67h519v121c-24-22-62-22-86 2z m164 163c-2 2-4 3-7 5-2 0-4 1-6 1-3 0-7 0-10-1-2-2-5-3-6-5l-105-104c-8-9-8-21 0-30 9-8 22-8 30 0l69 69v-241c0-12 9-21 21-21 11 0 20 9 20 21v241l69-69c9-8 21-8 30 0 8 9 7 22-1 30l-104 104z" horiz-adv-x="1000" />

<glyph glyph-name="user-crown" unicode="&#xea0b;" d="M448 364c100 0 180 81 180 181 0 100-80 180-180 180-99 0-179-81-179-181 0-100 80-180 179-180z m206-325c-6 7-11 16-12 26l-21 140c-3 23 9 46 30 58v0l0 0c5 2 11 4 16 5-31 13-64 22-100 22h-248c-118-5-214-93-234-207-1-4-1-9-2-17v-2c0-36 31-67 68-67h502c-2 6-4 13-4 20 0 7 2 15 5 22z m256 190c-7 4-15 3-21-3l-44-41-40 56c-3 5-9 8-15 8-5 0-11-3-15-7l-41-57-44 41c-6 6-15 7-22 3-7-4-11-11-10-19l20-140c2-9 10-16 19-16h184c9 0 17 6 18 16l20 140c3 8-1 15-9 19z m-36-194h-169c-10 0-18-8-18-19 0-10 8-19 18-19h169c10 0 19 9 19 19 0 11-9 19-19 19z" horiz-adv-x="1000" />

<glyph glyph-name="user-friends-plus" unicode="&#xea0c;" d="M684 444c55 54 55 144 0 198-55 55-144 55-198 0-55-54-55-144 0-198 55-55 144-55 198 0z m-342 56c36 37 36 96 0 133-37 37-96 37-133 0-36-37-36-96 0-133 37-36 96-36 133 0z m-98-144c-80 0-146-58-160-134-6-34 18-53 45-53h132v19c1 73 44 138 109 168h-126z m491-134c-46-3-83-42-83-89 0-32 17-60 42-75-34-4-70-6-109-6-85 0-155 8-210 24-35 11-60 44-60 81v26c1 58 36 110 89 130 56 22 116 33 181 33 64 0 124-11 180-33 6-2 11-5 17-8 3-2 6-4 9-6-31-12-53-42-56-77z m-20-89c0-15 12-28 27-28h56v-56c0-15 12-27 27-27 15 0 27 12 27 27v56h56c15 0 27 13 27 28 0 15-12 27-27 27h-56v56c0 15-12 27-27 27-15 0-27-12-27-27v-56h-56c-15 0-27-12-27-27z" horiz-adv-x="1000" />

<glyph glyph-name="file-article" unicode="&#xea0d;" d="M833 79c0-80-65-146-145-146h-375c-81 0-146 66-146 146v542c0 80 65 146 146 146h298c35 0 69-16 93-42l98-110c20-23 31-53 31-83v-453z m-458 500c-23 0-42-18-42-41v-125c0-23 19-42 42-42h250c23 0 42 19 42 42v125c0 23-19 41-42 41h-250z m-42-302c0-17 14-31 32-31h270c18 0 32 14 32 31 0 17-14 31-32 31h-270c-18 0-32-14-32-31z m32-94c-18 0-32-14-32-31 0-17 14-31 32-31h270c18 0 32 14 32 31 0 17-14 31-32 31h-270z" horiz-adv-x="1000" />

<glyph glyph-name="globe-alt" unicode="&#xea0e;" d="M403 272h194c6 0 10 4 11 10 3 23 4 45 5 68-1 23-2 46-5 68-1 6-5 10-11 10h-194c-5 0-10-4-11-10-2-22-4-45-4-68 0-23 2-45 4-68 1-6 6-10 11-10z m-230-78c-8 0-13-9-10-16 46-97 130-172 232-203 9-2 17 8 12 17-33 60-58 125-74 193-1 5-6 9-11 9h-149z m420-202c-5-9 3-19 13-17 101 31 185 106 231 203 3 7-2 16-10 16h-149c-5 0-10-4-11-9-16-68-41-133-74-193z m265 280c6 0 10 4 11 9 4 23 6 46 6 69 0 23-2 46-6 69-1 5-5 9-11 9h-163c-7 0-12-6-11-13 2-21 3-43 4-64 0-1 0-1 0-2-1-21-2-43-4-64-1-7 4-13 11-13h163z m-31 234c8 0 13 9 10 16-46 97-130 172-231 203-10 2-18-8-13-17 33-60 58-125 74-193 1-5 6-9 11-9h149z m-420 202c5 9-3 19-12 17-102-31-186-106-232-203-3-7 2-16 10-16h149c5 0 10 4 11 9 16 68 41 133 74 193z m-276-289c-4-23-6-46-6-69 0-23 2-46 6-69 1-5 5-9 11-9h163c7 0 12 6 11 13-2 21-3 43-3 64 0 1 0 1 0 2 0 21 1 43 3 64 1 7-4 13-11 13h-163c-6 0-10-4-11-9z m378 282c-4 7-14 7-18 0-35-55-62-116-79-180-2-8 3-15 11-15h154c8 0 13 7 11 15-17 64-44 125-79 180z m68-507h-154c-8 0-13-7-11-15 17-64 44-125 79-180 4-7 14-7 18 0 35 55 62 116 79 180 2 8-3 15-11 15z" horiz-adv-x="1000" />

<glyph glyph-name="newspaper" unicode="&#xea0f;" d="M308 767c-60 0-103-57-103-118v-114l0 0v-486c0-12 0-20 0-25-3-15-15-27-30-27-17 0-31 15-31 33v619c0 18-13 32-30 32-17 0-31-14-31-32v-619c0-54 41-97 92-97 4 0 9 1 13 1 2 0 5-1 7-1h573c60 0 102 57 102 118v598c0 61-42 118-102 118h-460z m90-161h279c23 0 41-19 41-42v-128c0-24-18-43-41-43h-279c-22 0-40 19-40 43v128c0 23 18 42 40 42z m-40-331c0 18 13 32 30 32h299c17 0 31-14 31-32 0-17-14-32-31-32h-299c-17 0-30 15-30 32z m30-96h299c17 0 31-14 31-32 0-18-14-32-31-32h-299c-17 0-30 14-30 32 0 18 13 32 30 32z" horiz-adv-x="1000" />

<glyph glyph-name="user-cancel" unicode="&#xea10;" d="M627 557c0 93-75 168-167 168-93 0-168-75-168-168 0-94 75-169 168-169 92 0 167 75 167 169z m-100-429c0 80 48 148 117 178-24 9-49 13-75 13h-218l-9 0c-109-4-198-87-216-193 0-3-1-9-1-16l0-1c0-35 28-62 63-62h357c-11 24-18 52-18 81z m64-11c0-78 64-142 142-142 79 0 142 64 142 142 0 78-63 142-142 142-78 0-142-64-142-142z m142 91c16 0 31-4 44-11l-124-124c-7 13-11 28-11 44 0 50 41 91 91 91z m0-182c-16 0-31 4-44 11l124 124c7-13 12-28 12-44 0-51-41-91-92-91z" horiz-adv-x="1000" />

<glyph glyph-name="user-info" unicode="&#xea11;" d="M663 545c0 100-80 180-179 180-99 0-179-81-179-181 0-100 80-180 179-180 99 0 179 81 179 181z m-121-401c0 26 16 49 39 58-23 9-39 31-39 58 0 11 3 21 8 30h-193c-116-5-211-93-231-207-1-4-1-10-1-17v-2c0-36 30-67 67-67h366c-5 10-8 20-8 31 0 25 15 46 35 56-25 8-43 32-43 60z m114 81h105c17 0 31 14 31 31 0 17-14 32-31 32h-105c-17 0-31-15-31-32 0-17 14-31 31-31z m203-115c17 0 31 15 31 32 0 17-14 31-31 31h-203c-17 0-31-14-31-31 0-17 14-32 31-32h203z m0-114c17 0 31 14 31 31 0 17-14 31-31 31h-203c-17 0-31-14-31-31 0-17 14-31 31-31h203z" horiz-adv-x="1000" />

<glyph glyph-name="activity-slash" unicode="&#xed90;" d="M195 697c0 0 0 0 0 0l-17 17c-12 12-32 12-44 0-12-12-12-32 0-44l20-20c-12-21-19-45-19-71v-411c0-81 66-146 146-146h459c13 0 25 2 37 5l24-24c12-12 32-12 44 0 12 12 12 32 0 44l-10 10c0 0 0 0 0 0l-268 269 0 0-53 52 0 0-33 33 1 0-55 55c0 0 0 0 0 0l-232 231z m388-299l30-30-22 65-8-35z m84-84l206-206c8 18 12 39 12 60v411c0 81-65 146-145 146h-459c-8 0-16-1-23-2l273-273 23 105c3 14 15 24 29 25 14 1 27-8 31-21l62-182h53c17 0 31-14 31-31 0-18-14-32-31-32h-62z m-294 63l19 35 158-159-10-45c-3-13-15-23-29-24-14-1-27 8-31 22l-47 150-8-16c-9-16-25-26-43-26h-70c-17 0-31 14-31 32 0 17 14 31 31 31h61z" horiz-adv-x="1000" />

<glyph glyph-name="address-book" unicode="&#xed91;" d="M323 725c-69 0-125-56-125-125v-52h-42c-17 0-31-14-31-31 0-18 14-32 31-32h42v-270h-42c-17 0-31-14-31-32 0-17 14-31 31-31h42v-52c0-69 56-125 125-125h417c69 0 125 56 125 125v500c0 69-56 125-125 125h-417z m208-365c-54 0-98 44-98 99 0 55 44 99 98 99 55 0 99-44 99-99 0-55-44-99-99-99z m64-37c67 0 121-49 133-113 0-2 0-6 0-10 1-20-15-37-36-37l-1 0h-320c-20 0-37 16-37 36l0 1c0 4 1 7 1 9 11 63 63 111 127 114l5 0h128z" horiz-adv-x="1000" />

<glyph glyph-name="alarm" unicode="&#xed93;" d="M392 690c-14 21-36 32-59 35-20 2-40-3-57-16-17-12-28-30-33-49-5-22 0-47 14-67l51 37 34 24 50 36z m328-610c69 57 113 144 113 241 0 172-140 312-312 312-173 0-313-140-313-312 0-97 45-184 114-241l-55-74c-11-14-8-34 6-44 14-10 33-7 44 6l57 77c44-24 94-37 147-37 53 0 103 13 147 37l57-77c10-13 30-16 44-6 14 10 16 30 6 44l-55 74z m-168 366v-94h94c17 0 31-14 31-31 0-18-14-32-31-32h-125c-17 0-31 14-31 32v125c0 17 14 31 31 31 17 0 31-14 31-31z m157 279c-23-3-45-14-60-35l51-36 34-24 51-37c14 20 18 45 13 67-4 19-15 37-32 49-17 13-38 18-57 16z" horiz-adv-x="1000" />

<glyph glyph-name="album" unicode="&#xed94;" d="M292 725c-92 0-167-75-167-167v-416c0-92 75-167 167-167h416c92 0 167 75 167 167v416c0 92-75 167-167 167h-416z m458-375c0-138-112-250-250-250-138 0-250 112-250 250 0 138 112 250 250 250 138 0 250-112 250-250z m-292 0c0-23 19-42 42-42 23 0 42 19 42 42 0 23-19 42-42 42-23 0-42-19-42-42z" horiz-adv-x="1000" />

<glyph glyph-name="arrows" unicode="&#xeda5;" d="M412 523l31 32v-150h-149l33 33c15 15 15 39 0 53-14 15-38 15-53 0l-96-96c-7-7-11-17-11-27 0-9 4-19 11-26l96-96c15-15 39-15 53 0 15 14 15 38 0 53l-32 31h148v-148l-31 32c-15 15-39 15-53 0-15-15-15-38 0-53l96-96c7-7 17-11 27-11 10 0 19 4 26 11l97 96c14 15 14 38 0 53-15 15-39 15-53 0l-34-33v149h150l-32-31c-15-15-15-39 0-53 15-15 38-15 53 0l97 96c7 7 11 17 11 26 0 10-4 20-11 27l-97 96c-15 15-38 15-53 0-15-14-15-38 0-53l33-33h-151v151l34-33c14-15 38-15 53 0 14 15 14 38 0 53l-97 96c-7 7-16 11-26 11-10 0-20-4-27-11l-96-96c-15-15-15-38 0-53 14-15 38-15 53 0z" horiz-adv-x="1000" />

<glyph glyph-name="arrows-h" unicode="&#xeda6;" d="M359 504c-17 16-43 16-59 0l-121-121c-8-7-12-18-12-29 0-11 4-22 12-30l121-120c16-17 42-17 59 0 16 16 16 42 0 59l-92 91 92 91c16 17 16 43 0 59z m282-300c17-16 43-16 59 0l121 121c8 8 12 18 12 29 0 11-4 22-12 30l-121 121c-16 16-42 16-59 0-16-17-16-43 0-59l92-92-92-91c-16-16-16-43 0-59z m-474 150c0-23 18-41 41-41h584c23 0 41 18 41 41 0 23-18 42-41 42h-584c-23 0-41-19-41-42z" horiz-adv-x="1000" />

<glyph glyph-name="arrows-v" unicode="&#xeda7;" d="M346 209c-16-17-16-43 0-59l121-121c7-8 18-12 29-12 11 0 22 4 30 12l120 121c17 16 17 42 0 59-16 16-42 16-58 0l-92-92-91 92c-16 16-43 16-59 0z m300 282c16 17 16 43 0 59l-121 121c-7 8-18 12-29 12-11 0-22-4-30-12l-120-121c-17-16-17-42 0-59 16-16 42-16 59 0l91 92 91-92c17-16 43-16 59 0z m-150-474c23 0 42 18 42 41v584c0 23-19 41-42 41-23 0-42-18-42-41v-584c0-23 19-41 42-41z" horiz-adv-x="1000" />

<glyph glyph-name="article" unicode="&#xeda9;" d="M721 725h-523l-6 0c-61-4-109-55-109-117v-536l1-6c3-62 53-111 114-111h523l7 0c60 3 108 55 108 117v131l-72-79v-52l0-4c-2-22-21-40-43-40h-523l-4 1c-22 2-39 21-39 43l0 398c0 40 32 72 72 72l465-1c40 0 72-32 72-71l0-24 29 32c10 12 26 18 43 16l0 114 0 6c-4 62-54 111-115 111z m134-433l-85 85-158-155c-6-6-10-15-10-25l-12-61c-3-14 9-26 23-23l58 12c9 0 18 4 24 11l160 156z m27 27l-85 85 24 24c16 15 40 15 55-1l30-31c15-15 14-39-1-54l-23-23z m-669 84c0-16 13-29 29-29h248c15 0 28 13 28 29 0 16-13 29-28 29h-248c-16 0-29-13-29-29z m0-112c0-16 13-29 29-29h143c16 0 29 13 29 29 0 16-13 29-29 29h-143c-16 0-29-13-29-29z" horiz-adv-x="1000" />

<glyph glyph-name="article-slash" unicode="&#xedaa;" d="M91 705c-1 0-1 0-1-1-12 9-28 7-39-3-12-13-12-32 0-45l22-22v-574l0-7c4-67 58-120 124-120h566l7 0c1 1 2 1 3 1l23-23c12-12 32-12 44 0 12 12 12 30 2 42l-751 752z m785-697c7 16 11 34 11 52v141l-77-85v-42l66-66z m-131 131l162 160-91 91-163-159 92-92z m-248 248h15c18 0 32 14 32 31 0 18-14 32-32 32h-78l63-63z m-181 181l416 0c43 0 78-35 77-78l0-25 31 34c12 13 29 20 47 18l0 123 0 7c-4 67-58 120-124 120h-566l-7 0c-20-2-39-8-56-18l182-181z m-165-77c0 18 6 35 17 48l90-89h-13c-17 0-31-14-31-32 0-17 14-31 31-31h75l59-58h-134c-17 0-31-14-31-32 0-17 14-31 31-31h155c11 0 21 6 26 15l269-268h-498l-5 0c-23 2-41 23-41 47l0 431z m786-163l25 25c17 16 17 42 1 58l-32 34c-16 16-43 17-59 0l-27-25 92-92z" horiz-adv-x="1000" />

<glyph glyph-name="asterisk" unicode="&#xedab;" d="M503 683c-23 0-41-18-41-41v-220l-191 110c-20 11-46 4-57-16-12-20-5-45 15-56l191-111-190-109c-20-12-27-37-15-57 11-20 37-27 57-16l190 110v-219c0-23 18-41 41-41 23 0 42 18 42 41v219l188-108c20-12 45-5 57 15 11 20 4 45-16 57l-187 108 188 109c20 12 27 37 15 57-11 20-37 27-57 15l-188-108v220c0 23-19 41-42 41z" horiz-adv-x="1000" />

<glyph glyph-name="audio-description" unicode="&#xedad;" d="M208 683c-69 0-125-56-125-125v-416c0-69 56-125 125-125h584c69 0 125 56 125 125v416c0 69-56 125-125 125h-584z m303-208c0 17 14 31 31 31h84c86 0 155-69 155-155 0-86-69-156-155-156h-84c-17 0-31 14-31 32v248z m63-31v-186h52c51 0 93 42 93 93 0 51-42 93-93 93h-52z m-217-50l-40-93h80l-40 93z m66-155h-133l-11-26c-7-16-25-23-41-16-16 7-23 25-17 41l19 42c0 2 1 3 1 4l87 201c5 12 17 19 29 19 12 0 24-7 29-19l106-247c6-16-1-34-17-41-16-7-34 0-41 16l-11 26z" horiz-adv-x="1000" />

<glyph glyph-name="backward" unicode="&#xedaf;" d="M767 106c27-17 63 3 63 35v418c0 32-36 52-63 35l-251-209c-8-5-13-11-16-18v192c0 32-35 52-63 35l-251-209c-26-16-26-54 0-70l251-209c28-17 63 3 63 35v192c3-7 8-13 16-18l251-209z" horiz-adv-x="1000" />

<glyph glyph-name="brand-memberpress" unicode="&#xedb0;" d="M83 517c0-23 19-42 42-42 60 0 108-48 108-108v-225c0-23 19-42 42-42 23 0 42 19 42 42v225c0 106-86 191-192 191-23 0-42-18-42-41z m342-42c60 0 108-48 108-108v-225c0-23 19-42 42-42 23 0 42 19 42 42v225c0 106-86 191-192 191-106 0-192-85-192-191v-225c0-23 19-42 42-42 23 0 42 19 42 42v225c0 60 48 108 108 108z m300 0c60 0 108-48 108-108v-225c0-23 19-42 42-42 23 0 42 19 42 42v225c0 106-86 191-192 191-106 0-192-85-192-191v-225c0-23 19-42 42-42 23 0 42 19 42 42v225c0 60 48 108 108 108z" horiz-adv-x="1000" />

<glyph glyph-name="bars" unicode="&#xedb1;" d="M167 579v-41c0-12 9-21 21-21h625c11 0 20 9 20 21v41c0 12-9 21-20 21h-625c-12 0-21-9-21-21z m21-177c-12 0-21-9-21-21v-41c0-12 9-21 21-21h625c11 0 20 9 20 21v41c0 12-9 21-20 21h-625z m0-198c-12 0-21-9-21-21v-41c0-12 9-21 21-21h625c11 0 20 9 20 21v41c0 12-9 21-20 21h-625z" horiz-adv-x="1000" />

<glyph glyph-name="bars-2" unicode="&#xedb2;" d="M167 454v-41c0-12 9-21 21-21h625c11 0 20 9 20 21v41c0 12-9 21-20 21h-625c-12 0-21-9-21-21z m0-198v-41c0-12 9-21 21-21h625c11 0 20 9 20 21v41c0 12-9 21-20 21h-625c-12 0-21-9-21-21z" horiz-adv-x="1000" />

<glyph glyph-name="battery-full" unicode="&#xedb5;" d="M208 600c-69 0-125-56-125-125v-250c0-69 56-125 125-125h500c69 0 125 56 125 125v250c0 69-56 125-125 125h-500z m740-167c0 18-14 32-31 32-18 0-32-14-32-32v-166c0-18 14-32 32-32 17 0 31 14 31 32v166z" horiz-adv-x="1000" />

<glyph glyph-name="battery-half" unicode="&#xedb6;" d="M83 475v-250c0-69 56-125 125-125h500c69 0 125 56 125 125v250c0 69-56 125-125 125h-500c-69 0-125-56-125-125z m834-10c-18 0-32-14-32-32v-166c0-18 14-32 32-32 17 0 31 14 31 32v166c0 18-14 32-31 32z m-729-219v208c0 23 18 42 41 42h209c23 0 41-19 41-42v-208c0-23-18-42-41-42h-209c-23 0-41 19-41 42z" horiz-adv-x="1000" />

<glyph glyph-name="battery-quarter" unicode="&#xedb7;" d="M83 475v-250c0-69 56-125 125-125h500c69 0 125 56 125 125v250c0 69-56 125-125 125h-500c-69 0-125-56-125-125z m834-10c17 0 31-14 31-32v-166c0-18-14-32-31-32-18 0-32 14-32 32v166c0 18 14 32 32 32z m-729-219v208c0 23 18 42 41 42h42c23 0 42-19 42-42v-208c0-23-19-42-42-42h-42c-23 0-41 19-41 42z" horiz-adv-x="1000" />

<glyph glyph-name="battery-slash" unicode="&#xedb8;" d="M95 716c-12 12-32 12-44 0-12-12-12-32 0-44l59-60c-35-22-58-61-58-106v-250c0-69 56-125 125-125h414l127-126c12-12 32-12 44 0 12 12 12 32 0 44l-667 667z m421-510h-339c-27 0-50 23-50 50v250c0 25 17 45 40 49l349-349z m211 50c0-24-17-44-40-49l57-56c35 22 58 61 58 105v250c0 69-56 125-125 125h-414l75-75h339c28 0 50-22 50-50v-250z m200 209c0 23-19 41-42 41-23 0-41-18-41-41v-167c0-23 18-42 41-42 23 0 42 19 42 42v167z" horiz-adv-x="1000" />

<glyph glyph-name="battery-three-quarters" unicode="&#xedb9;" d="M83 475v-250c0-69 56-125 125-125h500c69 0 125 56 125 125v250c0 69-56 125-125 125h-500c-69 0-125-56-125-125z m834-10c-18 0-32-14-32-32v-166c0-18 14-32 32-32 17 0 31 14 31 32v166c0 18-14 32-31 32z m-729-219v208c0 23 18 42 41 42h375c23 0 42-19 42-42v-208c0-23-19-42-42-42h-375c-23 0-41 19-41 42z" horiz-adv-x="1000" />

<glyph glyph-name="bolt" unicode="&#xedbf;" d="M172 317c-13-16-1-41 20-41h322l-31-252c-3-25 28-39 44-19l328 399c14 16 2 41-19 41h-322l31 252c3 25-28 38-44 19l-329-399z" horiz-adv-x="1000" />

<glyph glyph-name="books" unicode="&#xedc3;" d="M495 73h-370v-43c0-30 24-55 54-55h77c30 0 54 25 54 55 0-30 24-55 53-55h78c30 0 54 25 54 55v43z m343 35l-178-50 10-41c8-30 37-48 66-40l75 21c29 8 46 38 38 68l-11 42z m-127 490c-2-1-3-2-5-3l-3-1-170-47 117-453 179 50-118 454z m-216-20v-467h-370v467h370z m193 106c-7 29-37 47-65 39l-75-21c-29-8-46-38-38-68l13-51 170 47 3 0c2 1 5 0 6 0l-14 54z m-432 41h-77c-30 0-54-25-54-55v-55h370v55c0 30-24 55-54 55h-78c-29 0-53-25-53-55l0 5c-3 28-26 50-54 50z" horiz-adv-x="1000" />

<glyph glyph-name="brand-android" unicode="&#xedc5;" d="M318 758c-13-13-13-32 0-45l50-50c-54-35-92-92-101-159h445c-9 67-47 124-101 159l51 50c12 13 12 32 0 45-12 12-32 12-44 0l-57-57c-3-3-6-8-7-12-21 6-42 9-64 9-23 0-44-3-64-9-2 4-4 9-8 12l-56 57c-12 12-32 12-44 0z m28-660v-113c0-17 14-31 31-31 17 0 31 14 31 31v113h163v-113c0-17 14-31 31-31 17 0 31 14 31 31v113h40c23 0 42 19 42 42v302h-450v-302c0-23 18-42 41-42h40z m477 408c-17 0-31-14-31-31v-229c0-17 14-31 31-31 17 0 31 14 31 31v229c0 17-14 31-31 31z m-635-31c0 17-14 31-32 31-17 0-31-14-31-31v-229c0-17 14-31 31-31 18 0 32 14 32 31v229z" horiz-adv-x="1000" />

<glyph glyph-name="brand-apple" unicode="&#xedc7;" d="M598 566c41 15 80 62 88 104 8 43-19 65-60 50-40-15-80-62-87-104-8-43 18-66 59-50z m-357-115c-69-119-18-295 49-392 33-47 72-100 123-98 23 1 39 7 56 15 19 8 39 17 72 17 30 0 49-9 67-17 18-7 35-15 61-14 53 1 87 48 119 95 18 27 31 53 40 74 9 20-3 44-21 57-30 22-69 65-70 138 0 55 26 95 49 119 17 17 24 46 5 62-42 37-92 42-112 43-40 3-75-11-104-22-18-7-33-13-45-13-13 0-30 7-49 15-24 9-51 21-79 21-66 0-127-41-161-100z" horiz-adv-x="1000" />

<glyph glyph-name="brand-buddyboss" unicode="&#xedc8;" d="M351 426l-19-100c-3-17-5-35-5-53-1-57 14-110 41-155-81 4-145 72-144 155 1 76 56 139 127 153z m166 124l5 26c0 0 33 141-102 149-11 0-14-5-15-13l-27-141c-37-1-72-8-104-21l5 26c0 0 33 141-102 149-11 0-15-5-16-13l-72-386c-3-17-5-35-6-53-2-164 129-298 291-298 163 0 297 134 299 298 1 44-10 74-30 92-26 23-71 19-93-10-21-27-17-68-18-82 0-36-13-69-33-95-20 26-32 59-31 95 1 86 71 156 156 156 85 0 153-70 152-156-1-56-31-105-75-132-3-2-11-7-17-14-5-5-9-13-11-16-26-48-63-88-107-119-3-2-7-5-6-9 2-3 9-4 12-4 15-3 30-4 46-4 163 0 297 134 299 298 2 164-129 298-291 298-39 0-75-7-109-21z" horiz-adv-x="1000" />

<glyph glyph-name="brand-buddyboss-app" unicode="&#xedc9;" d="M750 58v584c0 69-56 125-125 125h-292c-69 0-125-56-125-125v-584c0-69 56-125 125-125h292c69 0 125 56 125 125z m-329 364c-29-5-51-31-51-61-1-34 25-62 58-63-11 18-17 39-17 63 0 7 1 14 3 21l7 40z m67 51c14 5 29 8 44 8 66 0 119-54 118-120 0-67-55-121-121-121-6 0-12 0-18 1-2 0-5 1-5 2-1 2 1 3 2 4 18 12 33 28 44 48l0 0c1 2 2 4 4 6 2 3 5 5 7 6l0 0c18 11 30 31 30 54 1 34-27 63-61 63-35 0-63-29-64-63 0-15 5-28 13-39 8 11 13 24 14 39 0 0 0 1 0 2 0 7-1 21 7 31 9 11 27 13 38 4 7-7 12-20 12-37-1-67-55-121-121-121-66 0-119 54-118 121 0 7 0 14 2 21l29 157c1 3 2 5 6 5 55-4 42-60 42-60l-2-11c13 5 27 8 42 8l11 58c0 3 2 5 6 5 55-4 41-60 41-60l-2-11z m-71-396h125c17 0 31-14 31-31 0-17-14-31-31-31h-125c-18 0-32 14-32 31 0 17 14 31 32 31z" horiz-adv-x="1000" />

<glyph glyph-name="brand-buddyboss-bolt" unicode="&#xedca;" d="M833 276l-3-1c-27-12-56-18-87-18-13 0-26 1-38 4-7-41-32-76-66-97-2-2-10-6-15-12-5-5-8-12-10-15-23-42-57-78-96-105-3-2-7-5-5-8 1-2 7-4 10-4 14-2 27-3 42-3 144 0 263 116 268 259z m-447 407c-9 0-12-5-14-11l-23-126-14 0c-28-2-55-8-80-18l4 23 0 0c1 7 27 125-92 132-9 0-12-4-14-11l-65-343-2-12c-1-11-2-23-3-35-1-146 116-265 262-265 147 0 267 119 269 265l0 9 0 7c-29 20-53 47-69 78-16-1-32-9-42-22-18-24-15-60-16-72 0-32-11-61-30-85-18 24-28 53-28 85 1 62 43 115 100 132-6 20-10 42-10 64 0 23 4 45 10 65-19-3-37-8-55-15l4 23 0 0c2 7 27 125-92 132z m-62-266l-16-88-2-12c-2-11-3-23-3-35-1-51 13-98 37-138-73 3-131 64-130 138 1 67 50 123 114 135z m410-109c3-1 6-1 9-1l9 0c0 1 0 1 1 1 1 0 2 0 3 0 2 0 4 0 6 0 1 0 2 1 3 1 3 0 5 0 7 1 1 0 2 0 3 0 2 1 4 1 6 1 1 1 2 1 4 1 5 2 11 3 17 5 1 1 2 1 4 2 1 0 3 1 4 2 2 0 3 1 5 1 1 1 2 2 3 2 4 2 8 4 11 6l-7-4c2 1 5 2 7 4l2 1c51 29 86 84 86 147 0 95-78 171-174 171-71 0-133-42-159-103l-1-1c-2-4-3-8-4-12-1 0-1-1-1-2-1-2-1-4-2-6 0-1-1-3-1-4-2-6-3-13-4-20 0 0 0-1 0-1 0-3-1-5-1-8 0-4-1-9-1-14l1 11c0-4-1-7-1-11 0-3 1-6 1-9 0-1 0-2 0-3 0-2 0-5 1-7 0-1 0-2 0-3 0-2 1-4 1-6 0-1 0-2 0-3 1-2 1-4 2-6 0-1 0-2 1-4 15-62 65-111 129-125 1-1 2-1 3-1 1 0 3-1 4-1 2 0 3 0 4 0 2-1 4-1 5-1 2 0 3-1 5-1 2 0 4 0 6 0 4-1 8-1 12-1l-9 1z m-1 248c1 0 3 0 4-1 1-1 1-2 1-3l-6-50 0-2c0-2 1-4 2-5 2-1 4-3 6-3h77l1 0c2 0 2-2 2-3 0-1 0-2 0-2l-71-85-1-1c-2-1-3-1-4 0-1 1-2 2-2 3l7 51 0 2c-1 2-1 3-2 4-2 2-4 3-7 3h-76l-2 0c-1 1-2 2-2 3 0 1 1 2 1 3l71 85 1 1z" horiz-adv-x="1000" />

<glyph glyph-name="brand-buddypress" unicode="&#xedcb;" d="M917 350c0 230-187 417-417 417-230 0-417-187-417-417 0-230 187-417 417-417 230 0 417 187 417 417z m-667-132c0 69 56 125 125 125h29l34-32c1-1 4-1 5 0l34 32h29c23 0 45-6 64-18l0 1c22-14 41-35 51-59h0c6-15 10-32 10-49v-14c0-23-19-41-42-41h-297c-23 0-42 18-42 41v14z m190 142c-47 0-86 39-86 87 0 48 39 86 86 86 48 0 87-38 87-86 0-48-39-87-87-87z m168 65c-37 0-66 30-66 67 0 37 29 66 66 66 37 0 66-29 66-66 0-37-29-67-66-67z m112-158h-33c-15 55-55 101-107 123h64l5 0c50-2 91-39 100-87 0-2 0-4 0-7l0-1c0-16-13-28-29-28z" horiz-adv-x="1000" />

<glyph glyph-name="brand-clubhouse" unicode="&#xedcd;" d="M128 188c-14 1-26-8-28-22-13-107 64-199 172-205 14-1 26 10 26 23 1 14-10 26-23 27-79 4-135 71-125 149 1 14-8 26-22 28z m287 525c-15 14-39 15-55 1-18-15-19-41-4-59l140-162c10-19-6-33-24-19l-187 209-4 4c-16 14-39 14-55 0-17-16-19-42-4-59l192-214c1-1 2-2 3-4 25-25 6-56-17-40l-155 175-3 3c-16 14-40 14-56 0-17-15-18-42-3-59l203-228-1 1c15-22-7-45-29-27l-97 110-4 3c-15 14-39 14-55 0-17-15-19-42-4-59l186-209c126-155 256-168 409-7 58 65 79 149 76 248-1 23-3 46-7 70l-10 68-1 4c-8 51-29 75-63 74-3 0-6-2-7-5l-60-169-148 170 0 0-152 177-4 3z m-203-530c-14 2-26-8-28-22-7-60 37-113 98-116 14-1 26 10 26 23 1 14-10 26-23 27-32 2-55 28-51 60 2 14-8 26-22 28z m505 394c11 60-30 115-91 121-14 2-26-8-28-22-1-14 9-26 23-27 32-4 53-32 47-64-2-13 7-26 21-28 13-3 26 6 28 20z m84-9c19 106-53 202-161 213-13 2-26-8-27-22-2-14 8-26 22-27 79-9 131-78 117-156-2-13 7-26 21-29 13-2 26 7 28 21z" horiz-adv-x="1000" />

<glyph glyph-name="brand-codepen" unicode="&#xedce;" d="M467 755l-286-253-3-2c-10-11-13-26-10-39l-1-4v-183l1-4c-3-15 2-32 14-43l285-252c17-15 43-15 61 0l285 252 2 2c1 1 1 1 2 2 4 5 7 11 9 17 2 5 3 10 3 15v206l0 5c-1 6-3 12-6 17l-1 1c-2 4-5 8-9 12l-285 251c-18 16-44 16-61 0z m-143-445l132-116v-97l-187 164 55 49z m347 0l55-49-184-162v97l129 114z m-174 153l111-98-111-97-110 97 110 98z m-41 171v-97l-132-116-55 49 187 164z m83 0l187-164-55-49-132 116v97z m-247-265l-32-27v54l32-27z m416 0l32 27v-54l-32 27z" horiz-adv-x="1000" />

<glyph glyph-name="brand-dribbble" unicode="&#xedcf;" d="M322 727c-42-20-82-47-117-82-58-59-95-130-112-205 111-5 237 9 358 45 3 1 6 2 8 2-42 86-88 167-137 240z m165-297c-6-2-12-3-19-5-128-38-264-54-384-47-7-105 26-212 98-298 86 100 207 177 339 224 6 2 12 4 18 6-16 40-34 81-52 120z m59 21c19-41 37-82 53-124 105 27 214 35 318 21 0 93-30 187-92 263-79-69-176-122-279-160z m236 206c-111 102-264 133-400 93 49-74 95-157 137-243 99 36 190 87 263 150z m-132-696c-21 93-51 191-88 290-7-2-13-4-20-6-126-45-238-118-316-209 119-104 283-129 424-75z m57 27c32 18 61 41 88 67 64 65 103 146 117 230-94 14-194 8-290-16 35-96 65-191 85-281z" horiz-adv-x="1000" />

<glyph glyph-name="brand-edge" unicode="&#xedd0;" d="M505 725c-162 0-300-97-356-249 46 51 107 78 178 78h1c110 0 227-70 265-159h0c14-28 10-55 6-73-5-20-13-29-16-33l-1-2c-6-7-5-18 2-24 1-1 3-2 5-4l5-3c21-13 70-27 115-27 34 0 78 5 120 47 69 70 43 168 33 196-17 49-87 208-284 246-24 5-48 7-73 7z m-178-205c-89 0-160-50-201-141-13-157 81-297 194-360 16-9 68-35 140-44-64 30-112 83-134 151-37 113 9 235 117 309l0-1c17 11 37 17 57 17 3 0 5 0 7 0-48 41-115 68-179 69h-1z m71-174c-48-61-63-137-40-209 31-96 121-156 231-156 86 19 160 69 223 150l1 2c5 7 4 15 0 21-5 6-14 8-21 5l-8-4c-3-2-6-3-10-4-4-1-8-3-14-5-22-10-55-15-90-15-30 0-58 4-81 11-32 10-130 39-181 152-6 14-10 32-10 52z" horiz-adv-x="1000" />

<glyph glyph-name="brand-elementor" unicode="&#xedd1;" d="M315 642v-584c0-23-19-41-42-41h-65c-23 0-41 18-41 41v584c0 23 18 41 41 41h65c23 0 42-18 42-41z m477-107l-361 0c-23 0-42 19-42 42v65c0 23 19 41 42 41h361c23 0 41-18 41-41v-65c0-23-18-42-41-42z m0-111l-361 0c-23 0-42-19-42-42v-64c0-23 19-42 42-42h361c23 0 41 19 41 42v64c0 23-18 42-41 42z m0-407h-361c-23 0-42 18-42 41v65c0 23 19 42 42 42l361 0c23 0 41-19 41-42v-65c0-23-18-41-41-41z" horiz-adv-x="1000" />

<glyph glyph-name="brand-facebook" unicode="&#xedd2;" d="M500 725c-207 0-375-168-375-375 0-191 142-348 327-372v267h-77v89h76v65c0 76 47 118 115 118 23 0 46-1 68-4v-79h-46c-37 0-44-18-44-44v-56h88l-12-90h-76v-267c186 22 331 181 331 373 0 207-168 375-375 375z" horiz-adv-x="1000" />

<glyph glyph-name="brand-firefox" unicode="&#xedd3;" d="M295 587c55 47 127 76 205 76 109 0 204-55 260-137 14-243-175-432-368-294-10 7 10 7 37 7 28 0 63 0 78 8 6 3 13 8 20 12 14 9 27 17 35 16 19-3 24 12 14 23-11 13-40 36-73 20-93-43-155 21-144 59 2 7 9 16 13 17 4 4 16 12 30 23 33 24 79 59 87 78 3 6 6 21-3 24-14 4-49 4-62 4-24 0-41 15-39 30 1 18 14 41 52 72-65 9-102-41-102-41-12 3-26 3-40 3z m-157-136c-9-31-13-63-13-96 0-2 0-3 0-5 1-52 13-113 48-176 0 0 12-24 38-54 46-56 139-135 289-135 235 0 375 192 375 370 0 117-54 210-115 267-68 64-159 103-260 103-109 0-208-46-277-121-16 23-20 50-20 50 0 0-53-39-39-133 0 0-15-27-26-70z" horiz-adv-x="1000" />

<glyph glyph-name="brand-flickr" unicode="&#xedd4;" d="M500 725c-207 0-375-168-375-375 0-207 168-375 375-375h0c207 0 375 168 375 375v0c0 207-168 375-375 375z m-122-279h1c52 0 95-43 95-95 0-53-43-95-95-95-53 0-95 42-96 95 0 52 43 95 95 95z m153-95c0 52 42 95 95 95h0c52 0 95-43 95-95 0-53-43-95-95-95-53 0-95 42-95 95z" horiz-adv-x="1000" />

<glyph glyph-name="brand-gamipress" unicode="&#xedd5;" d="M265 80h469c18 0 34 12 40 29l99 288c13 38-30 70-63 48l-86-58c2-7 3-14 3-21 0-44-36-80-80-80-44 0-79 36-79 80 0 35 22 64 54 75l-87 177c-15 31-59 32-74 0l-87-177c31-10 54-40 54-75 0-44-35-80-79-80-44 0-80 36-80 80 0 7 1 14 3 21l-81 56c-34 23-77-10-64-48l99-286c6-17 21-29 39-29z" horiz-adv-x="1000" />

<glyph glyph-name="brand-github" unicode="&#xedd6;" d="M422 479c25 6 51 10 78 10 27 0 53-4 78-10l86 32c20 7 40-7 41-28l2-82c21-27 33-58 33-91 0-95-67-172-151-178 37-58 36-127 36-127v-30c42 17 122 58 176 132 45 61 74 142 74 228 0 114-43 204-100 267-77 84-181 123-275 123-94 0-198-39-274-123-58-63-101-153-101-267 0-86 29-167 74-228 54-74 134-115 176-132v30c0 0-1 69 36 127-84 6-151 83-151 178 0 33 12 64 33 91l3 82c0 21 21 35 40 28l86-32z" horiz-adv-x="1000" />

<glyph glyph-name="brand-google" unicode="&#xedd7;" d="M125 346c0-209 170-379 379-379 210 0 379 170 379 379 0 25-20 46-45 46h-292c-25 0-46-21-46-46 0-25 21-46 46-46h242c-22-137-141-242-284-242-159 0-287 129-287 288 0 159 128 287 287 287 70 0 134-25 184-66 20-17 49-14 65 6 16 19 13 48-6 64-66 55-150 88-243 88-209 0-379-170-379-379z" horiz-adv-x="1000" />

<glyph glyph-name="brand-gitlab" unicode="&#xedd8;" d="M255 672c-5 15-27 15-33 0l-137-372c-5-14 0-30 13-38l402-287 402 287c13 8 18 24 13 38l-137 372c-6 15-28 15-33 0l-245-697-245 697z m128-280l117-334 116 334h-233z" horiz-adv-x="1000" />

<glyph glyph-name="brand-google-admob" unicode="&#xedd9;" d="M807 112c-38 0-69-30-69-68l0-6c3-35 33-63 69-63 37 0 68 31 68 68l0 7c-3 35-33 62-68 62z m-307 613c-207 0-375-168-375-375 0-207 168-374 375-374 38 0 68 30 68 68 0 38-30 68-68 68-132 0-238 107-238 238 0 132 106 238 238 238 38 0 68 31 68 69 0 37-30 68-68 68z m76-8c12-15 20-33 22-53l0-9 0-8c-2-27-15-51-35-67 101-28 175-120 175-230l0-234c18 18 43 29 70 29 26 0 49-10 67-26l0 231 0 11c-5 176-132 322-299 356z" horiz-adv-x="1000" />

<glyph glyph-name="brand-google-firebase" unicode="&#xedda;" d="M440-56c25-14 55-14 81-1l336 181c17 9 26 28 21 46l-93 409c-10 45-64 64-100 35l-543-436c-23-19-20-54 5-69l293-165z m47 668l59-105c8-15 27-21 42-12 15 8 21 27 12 42l-67 121c-19 35-69 36-90 2l-310-502c-9-15-4-34 10-43 15-9 34-4 43 10l301 487z m-259 70l110-176c9-15 29-19 43-10 15 9 19 28 10 43l-127 203c-27 43-92 27-96-24l-43-564c-1-17 12-33 29-34 17-1 32 12 33 29l41 533z" horiz-adv-x="1000" />

<glyph glyph-name="brand-google-fonts" unicode="&#xeddb;" d="M445 593l-314-512-2-3c-9-20 5-44 28-44h250l4 0c10 1 19 7 24 16l10 22v521z m323 90h-250l-4 0c-15-2-27-15-27-31v-580l0-4c3-16 16-27 31-27h250l5 0c1 0 3 1 5 1l2 0c-103 0-187 84-187 188 0 96 73 176 167 186-62 13-108 67-108 132 0 70 53 128 121 135-2 0-3 0-5 0z m12-328c-69 0-125-56-125-125 0-69 56-125 125-125 3 0 5 0 7 0l-7 0c3 0 6 0 10 0 3 0 6 1 10 1l-6-1c1 0 2 1 3 1l3 0c59 9 105 61 105 124 0 62-46 114-105 123-1 0-2 0-3 0-1 1-2 1-3 1-1 0-3 0-4 0-1 0-2 0-3 0-2 0-4 1-7 1z m8 277c-46 0-84-38-84-84 0-46 38-83 84-83 46 0 83 37 83 83 0 46-37 84-83 84z m-559 51c-57 0-104-47-104-104 0-58 47-105 104-105 58 0 104 47 104 105 0 57-46 104-104 104z" horiz-adv-x="1000" />

<glyph glyph-name="brand-instagram" unicode="&#xeddc;" d="M875 142v416c0 92-75 167-167 167h-416c-92 0-167-75-167-167v-416c0-92 75-167 167-167h416c92 0 167 75 167 167z m-167 458c23 0 42-19 42-42 0-23-19-41-42-41-23 0-41 18-41 41 0 23 18 42 41 42z m-292-166c-46-46-46-122 0-168 46-46 122-46 168 0 46 46 46 122 0 168-46 46-122 46-168 0z m212 44c71-71 71-185 0-256-71-71-185-71-256 0-71 71-71 185 0 256 71 71 185 71 256 0z" horiz-adv-x="1000" />

<glyph glyph-name="brand-learndash" unicode="&#xeddd;" d="M750 725c-46 0-83-37-83-83v-692c0-9 7-17 16-17 83 0 150 68 150 150v559c0 46-37 83-83 83z m-333-292v-483c0-9 7-17 16-17 83 0 150 68 150 150v350c0 46-37 84-83 84-46 0-83-38-83-84z m-250-250v-233c0-9 7-17 16-17 83 0 150 68 150 150v100c0 46-37 84-83 84-46 0-83-38-83-84z" horiz-adv-x="1000" />

<glyph glyph-name="brand-lifterlms" unicode="&#xedde;" d="M543 297l143-85c8-5 19-4 27 3 8 7 10 18 5 28l-67 129c34 31 63 67 84 110 33 66 45 141 36 216-3 17-6 35-11 52-3 11-15 19-28 16-17-4-34-10-51-16-69-27-129-72-172-134-27-39-46-81-57-125l-146-3c-10 0-19-7-21-18-3-10 1-19 10-25l143-85c-13-28-9-59 3-88 5-9 13-14 23-13 31 2 61 14 79 38z m143 258c-1-32-28-58-61-57-32 2-58 29-57 62 1 32 29 58 61 57 33-2 58-29 57-62z m-343-535l201 153c7 7 3 19-7 20-53 10-140 58-168 98-6 8-20 6-23-4l-29-252c-4-15 15-26 26-15z m145 669c-1 17-16 30-33 29-128-8-249-78-318-198-91-157-62-350 57-474 8-8 20-11 31-8 12 3 20 12 22 23l55 258c4 16-7 33-24 37-17 3-34-8-37-24l-41-193c-66 102-74 237-9 350 58 101 160 160 268 167 17 1 30 16 29 33z m367-202c-8 16-26 22-42 14-15-7-22-26-14-41 48-97 48-215-11-316-65-113-186-174-307-167l146 132c13 11 14 31 2 44-11 13-31 14-44 2l-195-176c-9-8-13-20-10-31 3-11 12-20 23-23 168-41 349 31 440 188 69 119 68 259 12 374z" horiz-adv-x="1000" />

<glyph glyph-name="brand-linkedin" unicode="&#xeddf;" d="M875 142v416c0 92-75 167-167 167h-416c-92 0-167-75-167-167v-416c0-92 75-167 167-167h416c92 0 167 75 167 167z m-521 329c-18 0-33 15-33 33 0 19 15 34 33 34 19 0 34-15 34-34 0-18-15-33-34-33z m226-82c-30 0-55-25-55-55l0-1v-123c0-5-4-8-8-8h-46c-5 0-8 3-8 8v232c0 5 3 9 8 9h46c4 0 8-4 8-9v-21c12 14 29 24 55 30 85 15 118-38 118-117v-124c0-5-4-8-8-8h-46c-5 0-9 3-9 8v124c0 30-24 55-55 55z m-247-187c-5 0-8 3-8 8v232c0 5 3 9 8 9h46c4 0 8-4 8-9v-232c0-5-4-8-8-8h-46z" horiz-adv-x="1000" />

<glyph glyph-name="brand-medium" unicode="&#xede0;" d="M465 367c0 106-85 191-191 191-105 0-191-85-191-191 0-105 86-191 191-191 106 0 191 86 191 191z m278 0c0 96-54 174-121 174-68 0-122-78-122-174 0-95 54-173 122-173 67 0 121 78 121 173z m104-156c39 0 70 70 70 156 0 87-31 157-70 157-38 0-69-70-69-157 0-86 31-156 69-156z" horiz-adv-x="1000" />

<glyph glyph-name="brand-paidmembershipspro" unicode="&#xede4;" d="M816 524c0 1-1 1-1 1l-22-8c-219-84-403-218-552-402l-112 144c0 1-1 1-2 1-2-1-2-2-2-3l99-274c1-3 3-5 5-6 6-4 13-2 16 3 95 156 201 282 319 377 60 47 144 103 252 166 0 0 0 1 0 1z m-17-212l0 0c-5 0-8-5-7-9l21-188c0 0 0 0 0 0 0-5-4-8-8-8l-453 2c-5-7-11-15-16-22l480-7c1 0 1 0 2 0 11 2 18 11 17 21l-26 203c0 5-5 9-10 8z m-51 41c-5-1-9-5-8-10l16-170 0-1c0-4-3-7-8-7l-359-8c-6-8-12-15-18-23l388 4c1 0 1 0 2 0 10 1 18 10 17 20l-20 187c-1 5-5 8-10 8z m-151 287c-15 61-77 97-137 81l-19-5-4-1c-61-17-103-74-103-138l0-46-62-13c-20-5-35-22-36-42l-20-294 23-27 4 4c3 3 7 7 10 11l0 119 0 6c3 30 25 56 56 62l15 3-5 1c-22 7-36 31-32 57 3 25 22 43 43 45l5 0 4 0 5-1c23-6 37-31 34-57-3-18-13-32-26-40l1 0 6 0c27-1 52-19 61-45 6 4 11 8 16 13l0 27 1 6c2 30 23 55 53 62l7 1-4 1-4 1c-18 4-31 23-30 45l0 5 1 5c6 23 25 38 46 35 22-3 38-26 34-51l-1-6c-3-12-10-22-20-28l-4-3 1 0c17 3 34-2 47-13 7 5 15 9 22 13l0 1c2 24 17 44 37 55-16 5-27 24-24 44 2 19 16 33 33 35l4 0 3 0 4-1c18-5 29-23 26-44-1-11-7-21-15-27 10-1 18-6 25-12 8 4 16 8 23 11l-2 61c-1 3-1 5-1 8-6 25-30 40-55 35l-42-9 0 22 0 4c0 8-2 16-4 24z m108-205l-16-10-13-9-7-4-12-9c-4-3-9-6-13-8l-11-9-12-8-11-8-10-8-11-7-9-8-5-4c-59-47-115-102-168-165l299 8 1 0c11 1 18 10 17 20l-19 229z m-228 231c29 6 58-11 65-40 1-5 2-10 2-14l0-35-153-33 0 33 0 3c1 38 27 71 64 81l20 5 2 0z" horiz-adv-x="1000" />

<glyph glyph-name="brand-pinterest" unicode="&#xede5;" d="M765 85c147 146 147 384 0 530-146 147-384 147-530 0-147-146-147-384 0-530 146-147 384-147 530 0z m-328 270c0 0-7 17-7 40 0 38 21 66 47 66 23 0 34-18 34-38 0-15-6-34-12-55-4-11-8-23-10-35-6-27 13-48 39-48 47 0 78 61 78 134 0 55-36 96-103 96-75 0-121-57-121-120 0-22 6-38 16-50 4-5 5-8 3-14 0-2-1-5-2-9-1-4-2-9-3-11-1-7-6-9-12-6-35 14-51 52-51 96 0 72 60 157 177 157 95 0 157-69 157-144 0-99-54-173-134-173-26 0-52 15-60 32 0 0-15-59-18-70-5-19-28-67-44-61-16 6-10 57-5 76 4 20 31 137 31 137z" horiz-adv-x="1000" />

<glyph glyph-name="brand-pusher" unicode="&#xede6;" d="M479 767l-73-38 310-156 4 0-49-25-310 158-75-37 310-157 3 0-48-24-310 158-74-37 0 0 0-1 0 0 1-519 72-35v514l-3 5 51-26 0-519 72-34v514l-3 5 50-26 0-519 72-35 0 204 312 154 0 75-312-155v47l311 155 1 74-312-155v47l312 154 1 76 0-1-313 159z" horiz-adv-x="1000" />

<glyph glyph-name="brand-quora" unicode="&#xede7;" d="M675 100c95 59 158 166 158 287 0 187-149 338-333 338-184 0-333-151-333-338 0-186 149-338 333-338 27 0 53 4 79 10 28-52 70-90 153-83 17 1 29 16 29 33 0 17-11 31-26 38-21 9-48 26-60 53z m-2 242c0-56-18-107-47-145-31 33-77 61-134 66-19 2-33-13-33-32 0-19 15-35 32-43 16-8 35-23 51-50-13-4-26-6-39-6-94 0-171 94-171 210v88c0 116 77 210 171 210 94 0 170-94 170-210l0-88z" horiz-adv-x="1000" />

<glyph glyph-name="brand-reddit" unicode="&#xede8;" d="M532 498l27 119c6 31 37 51 67 44l90-18c2-3 5-7 8-10 19-19 49-19 68 0l0 0 0 0c19 18 18 49 0 67l0 0c-17 17-44 19-63 5l-90 18c-64 13-127-28-141-92l-28-125c-1-3-1-5-1-8-92-5-173-34-233-77-37 33-94 31-128-5-34-36-33-94 4-129 6-5 14-10 21-14-2-10-3-20-3-30 0-138 163-257 370-257 207 0 370 119 370 257 0 10-1 20-3 30 7 4 15 9 21 14 37 35 38 93 4 129-34 36-91 38-128 5-59 43-141 72-232 77z m-177-162c24 0 44-20 44-44 0-25-20-45-44-45-25 0-45 20-45 45 0 24 20 44 45 44z m279 0c24 0 44-20 44-44 0-25-20-45-44-45-25 0-45 20-45 45 0 24 20 44 45 44z m-310-168c6 17 24 25 40 19 40-15 85-23 136-23 51 0 96 8 136 23 16 6 34-2 40-19 6-16-3-34-19-40-46-17-99-27-157-27-58 0-111 10-157 27-16 6-25 24-19 40z" horiz-adv-x="1000" />

<glyph glyph-name="brand-restrictcontentpro" unicode="&#xede9;" d="M188 547c0 64 51 116 115 116h253c17 0 31 14 31 31 0 17-14 31-31 31h-253c-98 0-178-80-178-178v-248c0-17 14-31 31-31 18 0 32 14 32 31v248z m52-62v-416c0-69 56-125 125-125h416c69 0 125 56 125 125v416c0 70-56 125-125 125h-416c-69 0-125-55-125-125z m268-354c0-11-9-21-21-21h-60c-11 0-21 10-21 21v227c0 47 39 86 86 86h131c62 0 112-50 112-112 0-15-4-30-10-44-15-36-30-63-45-79l39-67c8-14-2-32-19-32h-53c-8 0-15 5-19 12l-52 104c-3 7 0 15 7 18 18 9 32 23 42 40 15 26 6 60-21 74-8 5-17 7-26 7h-27c-24 0-43-19-43-43v-191z" horiz-adv-x="1000" />

<glyph glyph-name="brand-safari" unicode="&#xedea;" d="M917 350c0 230-187 417-417 417-230 0-417-187-417-417 0-230 187-417 417-417 230 0 417 187 417 417z m-417 302c17 0 31-14 31-31v-21c0-17-14-31-31-31-17 0-31 14-31 31v21c0 17 14 31 31 31z m-302-302c0 17 14 31 31 31h21c17 0 31-14 31-31 0-17-14-31-31-31h-21c-17 0-31 14-31 31z m521 0c0 17 14 31 31 31h21c17 0 31-14 31-31 0-17-14-31-31-31h-21c-17 0-31 14-31 31z m-188-250v-21c0-17-14-31-31-31-17 0-31 14-31 31v21c0 17 14 31 31 31 17 0 31-14 31-31z m168 95l15-15c12-12 12-32 0-44-12-12-32-12-44 0l-15 15c-13 12-13 32 0 44 12 13 32 13 44 0z m-413 369c12 12 32 12 44 0l15-15c13-12 13-32 0-44-12-13-32-13-44 0l-15 15c-12 12-12 32 0 44z m441 4l-136-317-290-146c-17-9-36 9-28 27l136 317 290 146c17 9 36-9 28-27z m-185-218c0 23-19 42-42 42-23 0-42-19-42-42 0-23 19-42 42-42 23 0 42 19 42 42z" horiz-adv-x="1000" />

<glyph glyph-name="brand-skype" unicode="&#xedeb;" d="M439 698c-69 40-160 36-225-11-43-30-74-76-84-128-11-50-3-103 22-148-10-62-4-126 18-185 30-82 93-152 171-191 67-34 146-46 220-33 67-38 155-36 219 7 47 31 80 80 91 134 10 50 1 102-23 146 10 58 5 120-14 176-29 83-89 154-166 196-70 37-152 50-229 37z m-22-264c0-16 12-30 28-32l124-21c56-10 96-57 98-113 0 0 0-1 0-1v-1c0-1 0-1 0-2-1-36-19-68-49-89-30-22-71-32-118-32-36 0-70 8-98 23-28 15-52 38-63 69-8 22 4 45 26 53 22 7 45-4 53-26 2-5 8-14 23-23 15-8 35-13 59-13 36 0 58 8 70 16 10 8 13 16 13 24 0 16-12 30-27 33l-125 20c-56 10-98 58-98 115 0 37 18 70 49 93 30 21 71 31 118 31 36 0 70-8 98-23 28-15 52-38 63-69 8-22-4-45-26-53-21-7-45 4-53 26-2 6-8 15-23 23-15 8-35 13-59 13-36 0-58-8-69-16-11-8-14-16-14-25z" horiz-adv-x="1000" />

<glyph glyph-name="brand-snapchat" unicode="&#xedec;" d="M511 725c-60 0-114-24-153-63-39-39-63-93-63-153 0-46-1-86-5-120l-52 39c-14 9-31 12-48 10-15-2-30-9-42-21-12-13-18-30-17-48 1-15 9-32 23-45l75-56c-19-16-44-30-75-44l-16-7c-17-7-17-31-1-38l17-8c67-29 67-29 127-117 57 0 92-22 125-40 34-20 65-37 105-37 39 0 71 17 105 37 32 18 68 40 151 56 33 72 33 72 101 101l16 8c17 7 17 31 0 38l-17 7c-29 13-53 26-71 41l70 59c14 13 21 30 21 46 0 17-6 34-18 46-13 14-30 21-47 22-17 1-34-5-48-17l-42-34c-5 34-5 75-5 122 0 60-24 114-64 153-36 37-86 60-142 63l-10 0z" horiz-adv-x="1000" />

<glyph glyph-name="brand-slack" unicode="&#xeded;" d="M412 310l-5-1c-43-4-74-38-74-80v-173c0-45 36-81 81-81l6 0c43 4 74 39 74 81v173c0 43-33 78-75 80l-7 1z m209-173h-52c-16 0-29-13-29-29v-52c0-45 37-81 81-81l7 0c42 4 74 39 74 81l0 6c-4 43-39 75-81 75z m-363 173h-52c-45 0-81-36-81-81l0-6c4-43 39-75 81-75l6 0c43 4 75 39 75 81v52c0 16-13 29-29 29z m536 34h-173c-44 0-81-36-81-80l1-7c4-43 38-74 80-74h173c45 0 81 36 81 81l0 6c-4 43-39 74-81 74z m-415 173h-173c-45 0-81-36-81-80l0-7c4-42 39-74 81-74h173c45 0 81 36 81 81l-1 6c-4 43-38 74-80 74z m208 208l-7 0c-42-4-74-39-74-81v-173c0-44 36-81 81-81l6 1c43 4 74 38 74 80v173c0 45-36 81-80 81z m206-173l-5 0c-43-4-74-39-74-81v-52c0-16 12-29 28-29h52c45 0 81 37 81 81l0 7c-4 40-36 71-75 74l-7 0z m-414 173l-6 0c-43-4-75-39-75-81l0-6c4-43 39-74 81-74h52c16 0 29 12 29 28v52c0 45-36 81-81 81z" horiz-adv-x="1000" />

<glyph glyph-name="brand-spotify" unicode="&#xedee;" d="M765 85c147 146 147 384 0 530-146 147-384 147-530 0-147-146-147-384 0-530 146-147 384-147 530 0z m-458 342c-17-4-34 5-39 22-5 16 4 33 21 38 77 23 164 26 243 17 78-9 152-31 201-62 15-10 19-29 10-43-10-15-29-19-43-10-39 24-102 44-176 53-72 9-150 5-217-15z m350-147c-75 48-215 75-333 38-16-5-34 4-39 21-5 16 4 34 21 39 135 42 294 12 385-46 14-9 18-28 9-43-9-14-29-19-43-9z m-325-64c-17-4-34 7-38 24-4 17 7 33 24 37 148 33 254 11 335-38 15-9 20-28 11-43-9-15-28-20-43-11-66 40-156 61-289 31z" horiz-adv-x="1000" />

<glyph glyph-name="brand-telegram" unicode="&#xedef;" d="M452 300c-17-16-16-44 3-58l43-32-85-83-45 210 258 120c0 0-115-104-174-157z m97-127l145-108c23-17 57-4 63 24l117 553c6 27-20 49-46 39l-688-266c-21-7-20-36 1-43l167-52 45-212c0-1 0-2 0-2 14-44 68-58 101-26l92 89c1 1 2 2 3 4z m-135-52l-4 3 22-22-18 19z" horiz-adv-x="1000" />

<glyph glyph-name="brand-tiktok" unicode="&#xedf0;" d="M551 683c-23 0-42-18-42-41v-433c0-60-48-109-108-109-61 0-109 49-109 109 0 60 48 109 109 109 23 0 41 18 41 41 0 23-18 42-41 42-107 0-193-86-193-192 0-106 86-192 193-192 106 0 192 86 192 192v256c38-39 90-72 156-72 23 0 41 19 41 42 0 23-18 41-41 41-44 0-82 26-112 65-15 19-26 40-34 59-7 19-10 34-10 42 0 23-19 41-42 41z" horiz-adv-x="1000" />

<glyph glyph-name="brand-tumblr" unicode="&#xedf1;" d="M471 652c0 17-14 31-31 31-17 0-31-14-31-31v-16c0 0 0 0 0-1v-41c0-48-39-86-86-86-17 0-31-14-31-32 0-17 14-31 31-31h86v-264c0-79 64-143 143-143 45 0 86 18 115 47 13 12 13 32 0 44-12 13-32 13-44 0-18-18-43-29-71-29-44 0-81 36-81 81v264h174c17 0 31 14 31 31 0 18-14 32-31 32h-174v144z" horiz-adv-x="1000" />

<glyph glyph-name="brand-tutorlms" unicode="&#xedf2;" d="M327 735c0-17 14-31 32-31h30v-46c0-4 1-8 2-11-108-48-183-155-183-281 0-177 128-328 303-357l263-44c2 0 4 0 7 0 22 0 41 18 41 41v360c0 136-88 250-209 291 0 0 0 1 0 1v46h41c17 0 31 14 31 31 0 18-14 32-31 32h-295c-18 0-32-14-32-32z m125-69v38h98v-33c-11 1-23 2-35 2-22 0-43-2-63-7z m62-503c-117 0-212 91-212 203 0 6 0 22 1 48 2 54 47 97 101 97 53 0 90-37 90-91v-165c0-20 12-20 20-20 18 0 19 13 19 20v168c0 52 36 88 88 88 54 0 98-42 103-95 2-27 3-43 3-50 0-112-95-203-213-203z m-118 257c-14 0-25-11-25-25v-51c0-13 11-25 25-25 13 0 25 12 25 25v51c0 14-12 25-25 25z m262-25c0 14-12 25-25 25-14 0-25-11-25-25v-51c0-13 11-25 25-25 13 0 25 12 25 25v51z" horiz-adv-x="1000" />

<glyph glyph-name="brand-twitch" unicode="&#xedf3;" d="M703 178l106 106c16 16 24 37 24 59v257c0 69-56 125-125 125h-323c-33 0-65-13-88-37l-94-93c-23-23-36-55-36-88v-240c0-69 56-125 125-125h29c7 0 12-6 12-13v-104c0-18 23-28 36-14l127 127c3 2 6 4 9 4h110c33 0 65 13 88 36z m-36 412c17 0 31-14 31-32v-125c0-17-14-31-31-31-18 0-32 14-32 31v125c0 18 14 32 32 32z m-136-32v-125c0-17-14-31-31-31-17 0-31 14-31 31v125c0 18 14 32 31 32 17 0 31-14 31-32z" horiz-adv-x="1000" />

<glyph glyph-name="brand-twitter" unicode="&#xedf4;" d="M222 183l-20-7c-12-4-28-9-45-14-7-2-14-5-21-7 22-26 45-50 74-70 41-28 95-48 176-48 144 0 255 49 329 131 75 81 117 199 117 339 0 6 2 13 5 18l52 75h-68c-11 0-21 5-27 14-15 22-33 39-56 51-22 11-52 18-91 18-56 0-101-19-132-50-32-30-51-74-53-127 0-10-5-19-13-25-8-6-18-8-27-6-101 24-193 97-254 181-73-134-54-301 67-419 8-8 11-20 9-31-3-11-11-20-22-23z" horiz-adv-x="1000" />

<glyph glyph-name="brand-vimeo" unicode="&#xedf5;" d="M755 683c-88 3-151-38-191-122-10-21 12-41 35-41 38 0 55-22 50-65-2-26-19-63-50-113-32-50-55-74-71-74-20 0-39 38-55 114-6 23-16 80-31 172-13 86-49 125-108 120-24-2-61-25-111-67-29-27-58-53-88-79-12-11-13-29-4-42 10-12 29-15 42-6 19 12 31 19 35 19 26 0 50-41 72-121 13-46 25-91 37-136 8-29 16-57 24-86 30-81 67-121 111-121 70 0 157 66 259 198 98 127 149 227 153 300 4 98-32 148-109 150z" horiz-adv-x="1000" />

<glyph glyph-name="brand-vk" unicode="&#xedf6;" d="M878 597c-16 7-34 1-42-15l0 0 0 0c0-1 0-1-1-2-1-2-2-5-4-8-4-7-10-18-17-30-16-26-40-60-71-96l0-1c-39-44-92-68-138-68-1 0-2 0-3 0h-55v192c0 17-14 31-31 31h-90c-17 0-31-14-31-31 0-17 14-31 31-31h58v-189c0-1 0-2 0-3 0-1 0-2 0-3v-186c-71 11-149 59-207 143l0 0 0 0c-53 73-86 137-105 185-10 24-17 44-21 59-2 7-3 13-4 18-1 2-1 4-1 5 0 1 0 2 0 2 0 0 0 0 0 0l0 0c0 17-14 31-31 31-18 0-32-14-32-31 0-10 3-25 8-42 5-17 12-40 23-66 21-52 57-120 112-197 76-109 185-172 289-172h1c17 0 31 14 31 31v192h58c0 0 1 0 2 0 46-1 98-24 136-68l0-1c31-36 55-70 71-96 7-12 13-23 17-30 2-3 3-6 4-8 0 0 1-1 1-1 0 0 0 0 0-1l0 0 0 0c8-16 26-22 42-15 16 7 22 26 15 42 0 0 0 0-28-14l28 14 0 0 0 0 0 0-1 1c0 0-1 1-1 2-1 3-3 6-5 10-4 8-11 19-19 33-17 28-43 65-77 104-21 24-45 44-71 59 26 15 50 35 71 59 34 39 60 76 77 104 8 14 15 25 19 33 2 4 4 7 5 10 0 1 1 2 1 2l1 1 0 0 0 0-28 14c28-14 28-14 28-14 7 16 1 35-15 42z" horiz-adv-x="1000" />

<glyph glyph-name="brand-whatsapp" unicode="&#xedf7;" d="M498 725c-205 0-373-167-373-372 0-59 14-117 41-170 6-10 7-21 4-32l-29-106c-8-31 20-60 51-52l112 30c10 2 21 1 30-4 51-25 107-38 164-38h0c206 0 374 167 374 372 0 99-39 193-109 263-71 70-165 109-265 109z m134-511c-52-52-140-8-210 61l0 0c-69 70-113 158-61 210l13 12c16 17 44 15 58-5 9-12 18-25 28-40 11-15 9-36-4-49l-14-14c11-18 26-36 42-52l0 0c16-16 34-31 52-42l14 14c13 13 34 15 49 4 14-10 27-18 38-27l2-1c20-14 22-42 5-58l-12-13z" horiz-adv-x="1000" />

<glyph glyph-name="brand-wishlistmember" unicode="&#xedf8;" d="M338 266c140 145 300 154 482 26 0 0 0 0 1 1 1 3 5 11 14 21 8 9 17 14 20 16 1 0 1 1 1 1-172 130-380 130-518-29-43 62-88 101-133 117-35 13-76 17-122 13 103 2 187-53 255-166z m579 10c0 20-16 36-36 36-20 0-36-16-36-36 0-20 16-36 36-36 20 0 36 16 36 36z" horiz-adv-x="1000" />

<glyph glyph-name="brand-woocommerce" unicode="&#xedf9;" d="M208 642c-69 0-125-56-125-125v-227c0-69 56-125 125-125h210l159-89c14-8 31 2 31 18v71h142c69 0 125 56 125 125v227c0 69-56 125-125 125h-542z m226-182c-9-17-16-45-20-77-4-31-5-62-5-81 1-12-7-24-19-29-12-5-25-2-34 7-18 18-32 42-42 64-3-5-5-11-8-16-7-14-16-28-24-38-4-3-12-12-24-15-8-2-17-1-26 4-8 5-12 11-15 16-4 9-8 22-11 34-4 13-8 29-11 45-7 31-14 66-17 87-3 17 8 34 25 37 17 2 33-9 36-26 4-21 10-54 17-85 1-5 2-9 3-14 11 23 22 50 29 69 5 13 18 21 32 20 14-1 25-11 28-24 1-7 4-16 7-26 5 28 12 57 24 78 9 15 28 21 43 12 15-8 20-27 12-42z m73-76c-3-15-2-27 2-36 3-8 7-10 8-10 1 0 5 0 12 6 7 6 13 17 16 31 3 15 2 27-2 36-3 8-7 10-8 10-1 0-5 0-12-6-7-6-13-17-16-31z m41 98c27-6 44-26 53-47 9-22 11-47 5-73-5-25-17-48-34-64-17-16-41-27-68-21-27 6-44 26-53 47-9 22-11 47-5 73 5 25 17 48 34 64 17 16 41 27 68 21z m160-67c-7-6-13-17-16-31-4-15-2-27 2-36 3-8 7-10 8-10 1 0 5 0 12 6 6 6 13 17 16 31 3 15 2 27-2 36-3 8-7 10-8 10-1 0-5 0-12-6z m-43 46c17 16 41 27 68 21 26-6 44-26 53-47 9-22 11-47 5-73-5-25-17-48-34-64-17-16-41-27-68-21-27 6-44 26-53 47-9 22-11 47-6 73 6 25 18 48 35 64z" horiz-adv-x="1000" />

<glyph glyph-name="brand-wordpress" unicode="&#xedfa;" d="M500 725c-207 0-375-168-375-375 0-207 168-375 375-375 207 0 375 168 375 375 0 207-168 375-375 375z m0-42c184 0 333-149 333-333 0-184-149-333-333-333-184 0-333 149-333 333 0 184 149 333 333 333z m4-368l-84-245c25-8 52-12 80-12 33 0 65 6 94 16l-90 241z m-294 70c-1-11-2-23-2-35 0-83 35-158 91-211l-89 246z m290 257c-80 0-153-33-205-85 5 1 10 2 15 3 11 2 21-5 23-16 2-11-5-21-16-22-13-3-25-5-36-6l125-367 77 223-52 141-1 2 0 2-14 2-12 1-13 1c-11 2-18 11-17 22 1 11 11 18 22 17l22-3 20-1 18-2 4 0 4-1 14 0 13-1 6 1 15 0 18 1 19 2 23 3 5 0 7 1c10 1 20-6 21-17 1-11-6-20-17-22l-24-2-12-2 127-366 68 191-2 9-3 14c-13 59-28 102-45 128l-3 6-4 7c-15 25-18 50-9 73-49 39-112 63-181 63z m292-290l-15-41-52-146c42 50 67 115 67 185l0 2z" horiz-adv-x="1000" />

<glyph glyph-name="brand-xing" unicode="&#xedfb;" d="M807 725h-96c-30 0-58-16-73-42l-212-373c-15-25-15-57 0-82l120-211c15-26 42-42 72-42h97c32 0 52 35 36 62l-126 222c-4 6-4 14 0 20l219 384c16 28-5 62-37 62z m-454-183c-14 26-42 42-72 42h-87c-32 0-52-34-36-62l54-95c4-7 4-15 0-21l-81-133c-17-28 3-64 36-64h86c29 0 56 16 71 40l76 125c15 26 16 58 1 85l-48 83z" horiz-adv-x="1000" />

<glyph glyph-name="brand-youtube" unicode="&#xedfc;" d="M238 672c-77-5-140-65-146-143-5-53-9-114-9-170 0-55 4-117 9-169 6-78 69-138 146-144 81-5 183-11 262-11 79 0 181 6 262 11 78 6 140 66 147 144 4 52 8 114 8 169 0 56-4 117-8 170-7 78-69 138-147 143-81 6-183 11-262 11-79 0-181-5-262-11z m207-453c-17-10-38 3-38 22v237c0 19 21 31 38 21l203-118c17-10 17-34 0-43l-203-119z" horiz-adv-x="1000" />

<glyph glyph-name="brand-zoom" unicode="&#xedfd;" d="M178 558c-29 0-53-23-53-53v-250c0-79 64-144 144-144h373c29 0 53 24 53 53v250c0 80-65 144-144 144h-373z m621-409c5-3 11-5 17-5 18 0 32 14 32 32v308c0 7-1 13-5 18-10 15-30 19-45 9l-65-42c-6-4-10-11-10-18l1-245c0-7 4-14 10-18l65-39z" horiz-adv-x="1000" />

<glyph glyph-name="browser" unicode="&#xedff;" d="M250 767c-92 0-167-75-167-167v-52h834v52c0 92-75 167-167 167h-500z m667-282h-834v-385c0-92 75-167 167-167h500c92 0 167 75 167 167v385z m-646 167c0-17-14-31-31-31-18 0-32 14-32 31 0 17 14 31 32 31 17 0 31-14 31-31z m52-31c-17 0-31 14-31 31 0 17 14 31 31 31 17 0 31-14 31-31 0-17-14-31-31-31z" horiz-adv-x="1000" />

<glyph glyph-name="browser-terminal" unicode="&#xee01;" d="M250 767c-92 0-167-75-167-167v-31h834v31c0 92-75 167-167 167h-500z m667-261h-834v-406c0-92 75-167 167-167h500c92 0 167 75 167 167v406z m-423-352h173c17 0 31-14 31-31 0-17-14-31-31-31h-173c-17 0-31 14-31 31 0 17 14 31 31 31z m-182 248c12 12 32 11 44-1l123-128c12-12 12-32 0-44l-123-128c-12-12-32-13-44-1-13 12-13 32-1 44l102 107-102 107c-12 12-12 32 1 44z m-41 250c0-17-14-31-31-31-18 0-32 14-32 31 0 17 14 31 32 31 17 0 31-14 31-31z m52-31c-17 0-31 14-31 31 0 17 14 31 31 31 17 0 31-14 31-31 0-17-14-31-31-31z" horiz-adv-x="1000" />

<glyph glyph-name="bug" unicode="&#xee02;" d="M252 678c-15-9-19-29-9-43l68-103c-14-19-25-40-32-63h-81c-17 0-31-14-31-31 0-18 14-32 31-32h71c0-1 0-2 0-4v-65h-71c-17 0-31-14-31-31 0-17 14-31 31-31h71v-68c0-1 0-3 0-4h-71c-17 0-31-14-31-31 0-18 14-32 31-32h81c28-89 112-155 212-155 99 0 183 66 211 155h99c17 0 31 14 31 32 0 17-14 31-31 31h-89c0 1 0 3 0 4v68h89c17 0 31 14 31 31 0 17-14 31-31 31h-89v65c0 2 0 3 0 4h89c17 0 31 14 31 32 0 17-14 31-31 31h-99c-10 31-26 59-47 82l72 69c12 12 13 32 1 45-12 12-32 13-44 1l-78-75c-34 21-73 33-115 33-51 0-98-17-135-46l-61 91c-10 15-29 19-43 9z m154-294c0 18 14 32 31 32h107c17 0 31-14 31-32 0-17-14-31-31-31h-107c-17 0-31 14-31 31z m31-128h107c17 0 31-14 31-31 0-17-14-31-31-31h-107c-17 0-31 14-31 31 0 17 14 31 31 31z" horiz-adv-x="1000" />

<glyph glyph-name="bullhorn" unicode="&#xee03;" d="M651 593v-375l185-123c34-23 81 2 81 43v535c0 41-47 66-81 43l-185-123z m-79-344v313h-332c-87 0-157-70-157-156 0-87 70-157 157-157h52l37-226c9-50 52-86 102-86 63 0 112 57 101 120l-32 192h72z" horiz-adv-x="1000" />

<glyph glyph-name="bullseye" unicode="&#xee04;" d="M773 755c-6 13-23 16-33 6l-125-126v-101c-1-1-1-1-2-2l-165-165c-12-12-12-32 0-44 12-12 32-12 44 0l166 165c0 1 0 1 1 1h101l126 126c10 10 7 27-6 33l-71 36-36 71z m-627-410c0 179 145 324 324 324 17 0 31 14 31 31 0 17-14 31-31 31-214 0-387-173-387-386 0-214 173-387 387-387 213 0 386 173 386 387 0 17-14 31-31 31-17 0-31-14-31-31 0-179-145-324-324-324-179 0-324 145-324 324z m158 0c0 91 74 166 166 166 17 0 31 14 31 31 0 17-14 31-31 31-126 0-229-102-229-228 0-127 103-229 229-229 126 0 229 102 229 229 0 17-14 31-32 31-17 0-31-14-31-31 0-92-74-166-166-166-92 0-166 74-166 166z" horiz-adv-x="1000" />

<glyph glyph-name="lightbulb" unicode="&#xee05;" d="M518 725c-75 0-142-30-190-78-48-48-78-115-78-190 0-98 52-182 129-226v-86c0-23 18-41 41-41h196c23 0 41 18 41 41v85c76 49 129 133 129 227 0 75-30 142-78 190-48 48-115 78-190 78z m-114-727c7-14 21-23 38-23h152c16 0 31 9 37 23 3 6 5 12 5 19v44h-236v-44c0-7 2-13 4-19z" horiz-adv-x="1000" />

<glyph glyph-name="camera" unicode="&#xee06;" d="M573 231c40 41 40 108 0 149-41 41-106 41-147 0-40-41-40-108 0-149 41-41 106-41 147 0z m302-80v265c0 78-63 141-141 141h-26l-37 75c-16 31-48 51-84 51h-176c-35 0-68-20-84-53l-35-73h-26c-78 0-141-63-141-141v-265c0-78 63-141 141-141h468c78 0 141 63 141 141z m-258 36c-65-66-170-66-235 0-65 65-65 171 0 237 65 65 170 65 235 0 65-66 65-172 0-237z" horiz-adv-x="1000" />

<glyph glyph-name="cancel" unicode="&#xee08;" d="M500 58c-161 0-292 131-292 292 0 65 22 125 58 174l398-416c-47-31-103-50-164-50z m225 107l-400 418c49 37 109 59 175 59 161 0 292-131 292-292 0-70-25-135-67-185z m-600 185c0-207 168-375 375-375 207 0 375 168 375 375 0 207-168 375-375 375-207 0-375-168-375-375z" horiz-adv-x="1000" />

<glyph glyph-name="caret-down" unicode="&#xee09;" d="M257 494l214-321c16-25 53-25 69 0l214 321c19 27-1 64-35 64h-427c-33 0-53-37-35-64z" horiz-adv-x="1000" />

<glyph glyph-name="caret-left" unicode="&#xee0a;" d="M631 96c28-18 65 1 65 35v427c0 34-37 53-65 35l-321-214c-24-16-24-53 0-69l321-214z" horiz-adv-x="1000" />

<glyph glyph-name="caret-right" unicode="&#xee0b;" d="M356 96l321 214c25 16 25 53 0 69l-321 214c-27 18-64-1-64-35v-427c0-34 37-53 64-35z" horiz-adv-x="1000" />

<glyph glyph-name="caret-up" unicode="&#xee0c;" d="M754 219l-214 321c-16 25-53 25-69 0l-214-321c-18-28 2-65 35-65h427c34 0 54 37 35 65z" horiz-adv-x="1000" />

<glyph glyph-name="chart-area" unicode="&#xee10;" d="M115 725c-18 0-32-14-32-31v-584c0-63 52-114 115-114h667c17 0 31 14 31 31 0 17-14 31-31 31h-667c-29 0-52 24-52 52v584c0 17-14 31-31 31z m281-361l-101 35c-27 9-55-11-55-40v-144c0-35 28-63 62-63h500c35 0 63 28 63 63v409c0 39-48 57-73 28l-136-155-123 42c-19 6-40-2-50-19l-87-156z" horiz-adv-x="1000" />

<glyph glyph-name="chart-bar-h" unicode="&#xee11;" d="M115 808c-18 0-32-14-32-31v-833c0-18 14-32 32-32 17 0 31 14 31 32v833c0 17-14 31-31 31z m0-575v-202h469c29 0 52 23 52 51v100c0 28-23 51-52 51h-469z m0 255v-203h730c28 0 51 23 51 51v100c0 28-23 52-51 52h-730z m0 254v-203h600c28 0 51 23 51 52v99c0 29-23 52-51 52h-600z" horiz-adv-x="1000" />

<glyph glyph-name="chart-bar-trending" unicode="&#xee12;" d="M613 663h74l-187-188-90 91c-13 12-32 12-45 0l-150-150c-12-12-12-32 0-44 13-12 32-12 45 0l128 128 90-91c12-12 32-12 44 0l209 209v-74c0-17 14-31 32-31 17 0 31 14 31 31v150c0 0 0 1 0 1 0 4-1 8-3 11-1 3-3 7-6 10-3 3-7 5-11 7-3 1-7 2-11 2h-150c-18 0-32-14-32-31 0-17 14-31 32-31z m220-232c23 0 42-18 42-41v-405c0-23-19-41-42-41h-108c-23 0-42 18-42 41v405c0 23 19 41 42 41h108z m-279-487c23 0 42 18 42 41v255c0 23-19 41-42 41h-108c-23 0-42-18-42-41v-255c0-23 19-41 42-41h108z m-279 0c23 0 42 18 42 41v105c0 23-19 41-42 41h-108c-23 0-42-18-42-41v-105c0-23 19-41 42-41h108z" horiz-adv-x="1000" />

<glyph glyph-name="chart-line" unicode="&#xee14;" d="M125 725c-23 0-42-19-42-42v-583c0-69 56-125 125-125h667c23 0 42 19 42 42 0 23-19 41-42 41h-667c-23 0-41 19-41 42v583c0 23-19 42-42 42z m721-220c-16 16-42 16-59 0l-233-234-83 84c-16 16-42 16-59 0l-150-150c-16-17-16-43 0-59 17-17 43-17 59 0l121 120 83-83c16-16 42-16 59 0l262 263c16 16 16 42 0 59z m-221-30c0-23 19-42 42-42h108v-108c0-23 19-42 42-42 23 0 41 19 41 42v150c0 23-18 42-41 42h-150c-23 0-42-19-42-42z" horiz-adv-x="1000" />

<glyph glyph-name="chart-pie" unicode="&#xee15;" d="M579 766c-22 3-41-16-41-39v-295c0-23 19-42 42-42h295c23 0 42 19 39 42-8 79-42 152-92 209-61 68-146 115-243 125z m260-493c2 22-17 41-40 41h-312c-14 0-25 11-25 25v312c0 23-19 42-41 40-190-21-338-182-338-377 0-209 170-379 379-379 195 0 356 148 377 338z" horiz-adv-x="1000" />

</font>
</defs>
</svg>
